Ссылка на приватное зеркало нашего сайта всего за 1$. Внимание количество ограничено!!!

2 сезон

iTunes

1 сезон

1

2 сезон

2 сезон

iTunes

1 сезон

RePack

30

Новинка

ВАЖНО

ИГРА 18+

pack

RePack

MK11
pack

Забери бонус

RePack

jed

!!Акция!!

Alien_Rage

RePack

fifa19

RePack

Assassins Creed: Odyssey

RePack

NEED FOR SPEED™ PAYBACK

4 сезон

9 сезон

Бесстыжие 9 сезон

Все сериалы

все сериалы на PB.wtf

RePack

FAR CRY 5
  

Убийство священного оленя / The Killing of a Sacred Deer (Йоргос Лантимос) [2017, ужасы, триллер, драма, детектив, BDRip 720p от TeamHD & NNNB] MVO + AVO + Original + Sub (3xRus,4xEng) pb.wtf

Убийство священного оленя через торрент pb.wtf

Размер: 11.5 GB | Добавлен: 2 года 1 мес. назад | Торрент скачан:201 раз
Скачать  

26-10-2018 14:26 Убийство священного оленя Скачать торрент  


Название: Убийство священного оленя
Оригинальное название: The Killing of a Sacred Deer
Год выпуска: 2017
Жанр: Ужасы, триллер, драма, детектив
Выпущено: Великобритания, Ирландия, США, Element Pictures, A24, Film4
Режиссер: Йоргос Лантимос
В ролях: Николь Кидман, Колин Фаррелл, Алисия Сильверстоун, Рэффи Кэссиди, Барри Кеоган, Билл Кэмп, Санни Сулджик, Дэнис Барон, Джозефина Элле, Лия Хаттон Бэсмур
Продолжительность: 02:01:02
Перевод: Профессиональный многоголосый, Авторский одноголосый
Субтитры: Russian (Focs), Russian (V.Martishevskiy), Russian (V.Martishevskiy-SDH), English, English (SDH), English (SDH-Colored)

Описание:
Талантливый кардиохирург Стивен живет счастливой жизнью с женой Анной и двумя прелестными детьми. Этой семейной идилии угрожает призрак из прошлого, которое Стивену больше не под силу скрывать.

Качество: BDRip 720p
Контейнер (Расширение): MKV
Видео: 1280x692 at 23.976 fps, MPEG-4 AVC, ~10391 kbps avg
Аудио №1: русский / 48 kHz/16-bit, AC3, 2/0 (L,R) ch, ~192 kbps avg|Многоголосый закадровый, Студия "Мельница"|
Аудио №2: русский / 48 kHz, DTS, 3/2 (L,C,R,l,r) + LFE ch, ~1510 kbps avg|Авторский одноголосый, С.Визгунов|
Аудио №3: английский / 48 kHz, DTS, 3/2 (L,C,R,l,r) + LFE ch, ~1510 kbps avg
Навигация по главам (Чаптеры): естьРелиз от: & Автор рипа:

Цитата:

• Сохранены оригинальные главы как на Blu-ray.
• За перевод С.Визгунова спасибо форуму е-180 и его пользователям: Stevemaster, -Holo-, Литти_07, SilverBeast, Tambov68, Foxlight, Chontvari, Hdrmv12, Planshetist, Luka69, Barvinok13, Karantin66, Wolf_Larsen, Zargo, Werewolf77, GaryH, Oleg-k, Lee Ray, ALEX150379, Serene, STONECOL

Format : Matroska
Format version : Version 2
File size : 11.5 GiB
Duration : 2 h 1 min
Overall bit rate : 13.6 Mb/s
Movie name : The.Killing.of.a.Sacred.Deer.2017.720p.BluRay.2xRus.Eng.TeamHD-NNNB
Encoded date : UTC 2018-10-03 16:58:15
Writing application : mkvmerge v5.8.0 ('No Sleep / Pillow') built on Sep 2 2012 15:37:04
Writing library : libebml v1.2.3 + libmatroska v1.3.0

Video
ID : 1
Format : AVC
Format/Info : Advanced Video Codec
Format profile : High@L4.1
Format settings : CABAC / 9 Ref Frames
Format settings, CABAC : Yes
Format settings, ReFrames : 9 frames
Codec ID : V_MPEG4/ISO/AVC
Duration : 2 h 1 min
Bit rate : 10.1 Mb/s
Width : 1 280 pixels
Height : 692 pixels
Display aspect ratio : 1.85:1
Frame rate mode : Constant
Frame rate : 23.976 (24000/1001) FPS
Color space : YUV
Chroma subsampling : 4:2:0
Bit depth : 8 bits
Scan type : Progressive
Bits/(Pixel*Frame) : 0.477
Stream size : 8.56 GiB (74%)
Writing library : x264 core 155 r2901 7d0ff22
Encoding settings : cabac=1 / ref=9 / deblock=1:-3:-3 / analyse=0x3:0x113 / me=umh / subme=11 / psy=1 / psy_rd=1.00:0.00 / mixed_ref=1 / me_range=32 / chroma_me=1 / trellis=2 / 8x8dct=1 / cqm=0 / deadzone=21,11 / fast_pskip=0 / chroma_qp_offset=-2 / threads=6 / lookahead_threads=1 / sliced_threads=0 / nr=0 / decimate=1 / interlaced=0 / bluray_compat=0 / constrained_intra=0 / bframes=12 / b_pyramid=2 / b_adapt=2 / b_bias=0 / direct=3 / weightb=1 / open_gop=0 / weightp=2 / keyint=240 / keyint_min=23 / scenecut=40 / intra_refresh=0 / rc=crf / mbtree=0 / crf=16.9 / qcomp=0.60 / qpmin=0 / qpmax=69 / qpstep=4 / ip_ratio=1.40 / pb_ratio=1.30 / aq=1:1.00
Language : English
Default : Yes
Forced : No

Audio #1
ID : 2
Format : AC-3
Format/Info : Audio Coding 3
Codec ID : A_AC3
Duration : 2 h 1 min
Bit rate mode : Constant
Bit rate : 192 kb/s
Channel(s) : 2 channels
Channel positions : Front: L R
Sampling rate : 48.0 kHz
Frame rate : 31.250 FPS (1536 SPF)
Bit depth : 16 bits
Compression mode : Lossy
Stream size : 166 MiB (1%)
Title : MVO, Mel'nica
Language : Russian
Service kind : Complete Main
Default : Yes
Forced : No

Audio #2
ID : 3
Format : DTS
Format/Info : Digital Theater Systems
Codec ID : A_DTS
Duration : 2 h 1 min
Bit rate mode : Constant
Bit rate : 1 509 kb/s
Channel(s) : 6 channels
Channel positions : Front: L C R, Side: L R, LFE
Sampling rate : 48.0 kHz
Frame rate : 93.750 FPS (512 SPF)
Bit depth : 24 bits
Compression mode : Lossy
Stream size : 1.28 GiB (11%)
Title : AVO, S.Vizgunov
Language : Russian
Default : No
Forced : No

Audio #3
ID : 4
Format : DTS
Format/Info : Digital Theater Systems
Codec ID : A_DTS
Duration : 2 h 1 min
Bit rate mode : Constant
Bit rate : 1 509 kb/s
Channel(s) : 6 channels
Channel positions : Front: L C R, Side: L R, LFE
Sampling rate : 48.0 kHz
Frame rate : 93.750 FPS (512 SPF)
Bit depth : 24 bits
Compression mode : Lossy
Stream size : 1.28 GiB (11%)
Language : English
Default : No
Forced : No

Text #1
ID : 5
Format : UTF-8
Codec ID : S_TEXT/UTF8
Codec ID/Info : UTF-8 Plain Text
Title : Focs
Language : Russian
Default : No
Forced : No

Text #2
ID : 6
Format : UTF-8
Codec ID : S_TEXT/UTF8
Codec ID/Info : UTF-8 Plain Text
Title : V.Martishevskiy
Language : Russian
Default : No
Forced : No

Text #3
ID : 7
Format : UTF-8
Codec ID : S_TEXT/UTF8
Codec ID/Info : UTF-8 Plain Text
Title : V.Martishevskiy-SDH
Language : Russian
Default : No
Forced : No

Text #4
ID : 8
Format : UTF-8
Codec ID : S_TEXT/UTF8
Codec ID/Info : UTF-8 Plain Text
Language : English
Default : No
Forced : No

Text #5
ID : 9
Format : UTF-8
Codec ID : S_TEXT/UTF8
Codec ID/Info : UTF-8 Plain Text
Title : SDH
Language : English
Default : No
Forced : No

Text #6
ID : 10
Format : UTF-8
Codec ID : S_TEXT/UTF8
Codec ID/Info : UTF-8 Plain Text
Title : SDH-Colored
Language : English
Default : No
Forced : No

Menu
00:00:00.000 : en:00:00:00.000
00:07:03.131 : en:00:07:03.131
00:14:38.794 : en:00:14:38.794
00:22:29.807 : en:00:22:29.807
00:31:16.917 : en:00:31:16.917
00:38:06.367 : en:00:38:06.367
00:45:53.209 : en:00:45:53.209
00:51:18.492 : en:00:51:18.492
01:00:25.914 : en:01:00:25.914
01:07:06.522 : en:01:07:06.522
01:16:36.884 : en:01:16:36.884
01:25:07.769 : en:01:25:07.769
01:30:27.422 : en:01:30:27.422
01:36:43.297 : en:01:36:43.297
01:44:07.950 : en:01:44:07.950
01:53:50.532 : en:01:53:50.532
скриншот   скриншот   скриншот   скриншот  
pb.wtf



Скачать Убийство священного оленя через торрент https://i1.imageban.ru/out/2018/10/26/7d0db803800df54d4a6d2f8c59f942d7.jpg Скачать фильм Убийство священного оленя через торрент бесплантно в хорошем качестве Описание:Талантливый кардиохирург Стивен живет счастливой жизнью с женой Анной и двумя прелестными детьми. Этой семейной идилии угрожает ... 10 10 5
Info! Золотая раздача, скачанное не засчитывается.
Торрент: Зарегистрирован [2018-10-26 14:26] · скачан: 201 раз
Статус: √ проверено
Размер: 11.5 GB
Как cкачать? Как скачать Убийство священного оленя через торрент | qTorrent

% Раздел Тема Автор DL S | L
Фильмы 2017 [DVDrip, WEB-DLRip, HDrip] (DUB, MVO) [ 2.18 GB ] Убийство священного оленя / The Killing of a Sacred Deer [2017 BDRip] MVO [Jaskier] Леонид Ильич Скачать
1 | 0
Фильмы с авторской озвучкой [ 1.46 GB ] Убийство священного оленя / The Killing of a Sacred Deer [2017 WEB-DLRip] AVO [BadBajo] - ExKinoRay Enigma2010 Скачать
2 | 0
T Фильмы 2017 [DVDrip, WEB-DLRip, HDrip] (DUB, MVO) [ 1.78 GB ] Убийство священного оленя / The Killing of a Sacred Deer [2017 HDRip] MVO AVO [BadBajo] - ExKinoRay Enigma2010 Скачать
1 | 0
# Фильмы (мультфильмы) cо спонсором показа (Новинки AVI/MKV) [ 9.32 GB ] Убийство священного оленя / The Killing of a Sacred Deer [2017 BDRip 1080p] MVO [@MUZOBOZ@] bober100 Скачать
1 | 0
# Фильмы (мультфильмы) cо спонсором показа (Новинки AVI/MKV) [ 5.16 GB ] Убийство священного оленя / The Killing of a Sacred Deer [2017 BDRip 720p] MVO [@MUZOBOZ@] bober100 Скачать
1 | 0
T Фильмы (Blu-ray, BD-Remux, HDDVD) [ 34.34 GB ] Убийство священного оленя / The Killing of a Sacred Deer [2017 BD Remux 1080p] MVO [Студия "Paradox" & Omskbird records] +AVO [BadBajo] bober100 Скачать
1 | 0
T Фильмы [HD 720p, 1080p] (Хороший звук DUB, MVO) [ 10.32 GB ] Убийство священного оленя / The Killing of a Sacred Deer [2017 BDRip 1080p] MVO [Студия "Paradox" & Omskbird records] +AVO [BadBajo] bober100 Скачать
1 | 0


Последний раз редактировалось: _denis_100 (2018-10-27 12:46), всего редактировалось 1 раз

28-11-2019 20:33  

Отключить всю рекламу на сайте

    Дорогой пользователь! Огромная просьба, поблагодарите релизера, оцените раздачу и оставьте свои комментарий, если Вы скачали Убийство священного оленя через торрент бесплатно! Внесите свою лепту в развитие PiratBit!
    Комментировать посты могут только пользователи прошедшие не сложную регистрацию
    Показать сообщения:    

    Убийство священного оленя через торрент
    Скачать бесплатно Убийство священного оленя
    Убийство священного оленя скачать торрент
    Убийство священного оленя смотреть онлайн
    Cкачать фильм Убийство священного оленя бесплатно
    Убийство священного оленя скачать торрент в хорошем качестве
    Убийство священного оленя смотреть онлайн бесплатно в хорошем качестве


    Вы не можете начинать темы
    Вы не можете отвечать на сообщения
    Вы не можете редактировать свои сообщения
    Вы не можете удалять свои сообщения
    Вы не можете голосовать в опросах
    Вы не можете прикреплять файлы к сообщениям
    Вы можете скачивать файлы