Ссылка на приватное зеркало нашего сайта всего за 1$. Внимание количество ограничено!!!

2 сезон

iTunes

1 сезон

1

2 сезон

2 сезон

iTunes

1 сезон

RePack

30

Ultimate

ВАЖНО

ИГРА 18+

pack

RePack

MK11
pack

Забери бонус

RePack

jed

!!Акция!!

Alien_Rage

RePack

fifa19

RePack

Assassins Creed: Odyssey

RePack

NEED FOR SPEED™ PAYBACK

4 сезон

9 сезон

Бесстыжие 9 сезон

Все сериалы

все сериалы на PB.wtf

RePack

FAR CRY 5
  

Лучше звоните Солу / Better call Saul / Сезон: 4 / Серии 1-10 из 10 (Винс Гиллиган, Томас Шнауз, Адам Бернштейн) [2018 г., Драма, криминал, WEBRip 1080p, HEVC, Профессиональный двухголосый Кубик в Кубе] pb.wtf

Лучше звоните Солу через торрент pb.wtf

Размер: 8.47 GB | Добавлен: 2 года 1 мес. назад | Торрент скачан:49 раз
Скачать  

26-10-2018 17:08 Лучше звоните Солу Скачать торрент  

Лучше звоните Солу Сезон: 4 / Better call Saul Season: 4
Год выпуска: 2018
Страна: США
Жанр: Драма, криминал
Продолжительность: 10х ~ 00:55:00
Перевод: Профессиональный двухголосый Кубик в Кубе
Субтитры: Нет

Режиссер: Винс Гиллиган, Томас Шнауз, Адам Бернштейн

Премьера в мире: 8 февраля 2015

rating
В ролях: Боб Оденкёрк, Ри Сихорн, Патрик Фабиан, Майкл МакКин, Майкл Мэндо, Джонатан Бэнкс, Ген Н. Чавес, Джил Мюррэй и другие.

Описание: История об испытаниях и невзгодах, которые приходится преодолеть Солу Гудману, адвокату по уголовным делам, в тот период, когда он пытается открыть свою собственную адвокатскую контору в Альбукерке, штат Нью-Мексико.

Доп. информация: Внимание! HEVC 10bit

Качество: WEBRip 1080p
Список серий:
01. Smoke / Дым
02. Breathe / Вдох
03. Something Beautiful / Нечто прекрасное
04. Talk / Разговор
05. Quite a Ride / Ничего себе поездочка
06. Piñata / Пиньяты
07. Something Stupid / Глупость
08. Coushatta / Кушатта
09. Wiedersehen / До свидания
10. Winner / Победитель

Формат: MKV
Качество: WEBRip 1080p
Видео: H.265/HEVC, 1920х1080, 1286 Кбит/сек
Аудио: русский / AC3 / 5.1 / 48 kHz / 640 kbps / |Кубик в Кубе|
Релиз от: aksaleale
скриншот   скриншот   скриншот   скриншот  

Общее
Уникальный идентификатор : 211669163548433396669040593455255734846 (0x9F3DFF7F6D54225190F418DFD18D4A3E)
Полное имя : F:\MOVIE\Better Call Saul [HEVC10 bit]\S04\Better.Call.Saul.S04E01.Smoke.1080p.10bit.WEBRip.6CH.x265.HEVC-PSA.mkv
Формат : Matroska
Версия формата : Version 4 / Version 2
Размер файла : 671 Мбайт
Продолжительность : 48 м. 47 с.
Общий поток : 1924 Кбит/сек
Название фильма : PSArips.com | Better.Call.Saul.S04E01.Smoke.1080p.10bit.WEBRip.6CH.x265.HEVC-PSA
Дата кодирования : UTC 2018-10-26 16:17:15
Программа кодирования : mkvmerge v8.3.0 ('Over the Horizon') 64bit
Библиотека кодирования : libebml v1.3.1 + libmatroska v1.4.2

Видео
Идентификатор : 1
Формат : HEVC
Формат/Информация : High Efficiency Video Coding
Профиль формата : Main 10@L4@Main
Идентификатор кодека : V_MPEGH/ISO/HEVC
Продолжительность : 48 м. 47 с.
Битрейт : 1286 Кбит/сек
Ширина : 1920 пикселей
Высота : 1080 пикселей
Соотношение сторон : 16:9
Режим частоты кадров : Постоянный
Частота кадров : 23,976 (24000/1001) кадра/сек
Цветовое пространство : YUV
Субдискретизация насыщенности : 4:2:0
Битовая глубина : 10 бит
Бит/(Пиксели*Кадры) : 0.026
Размер потока : 449 Мбайт (67%)
Default : Да
Forced : Нет

Аудио
Идентификатор : 2
Формат : AC-3
Формат/Информация : Audio Coding 3
Параметр Endianness формата : Big
Идентификатор кодека : A_AC3
Продолжительность : 48 м. 31 с.
Вид битрейта : Постоянный
Битрейт : 640 Кбит/сек
Каналы : 6 каналов
Расположение каналов : Front: L C R, Side: L R, LFE
Частота : 48,0 КГц
Частота кадров : 31,250 кадров/сек (1536 SPF)
Битовая глубина : 16 бит
Метод сжатия : С потерями
Размер потока : 222 Мбайт (33%)
Заголовок : KvK DD5.1 @ 640kbps
Язык : Russian
ServiceKind/String : Complete Main
Default : Да
Forced : Нет

pb.wtf



Скачать Лучше звоните Солу через торрент https://is1-ssl.mzstatic.com/image/thumb/Music122/v4/34/28/bd/3428bda9-09fb-130d-791e-0ace10e02375/source/1200x630bb.jpg Скачать фильм Лучше звоните Солу через торрент бесплантно в хорошем качестве Описание: История об испытаниях и невзгодах, которые приходится преодолеть Солу Гудману, адвокату по уголовным делам, в тот период, когда ... 10 10 6
Info! Золотая раздача, скачанное не засчитывается.
Торрент: Зарегистрирован [2018-10-26 17:08] · скачан: 49 раз
Статус: √ проверено
Размер: 8.47 GB
Как cкачать? Как скачать Лучше звоните Солу через торрент | qTorrent

% Раздел Тема Автор DL S | L
Зарубежные сериалы [ 5.97 GB ] Лучше звоните Солу / Better Call Saul / Сезон: 4 / Серии: 1-10 из 10 [2018 WEB-DLRip] MVO [NewStudio] bober100 Скачать
1 | 0
Зарубежные сериалы [ 14.08 GB ] Лучше звоните Солу / Better Call Saul / Сезон: 4 / Серии: 1-10 из 10 [2018 WEBRip 720p] [MVO] killermax2013 Скачать
1 | 0
Зарубежные сериалы [ 28.53 GB ] Лучше звоните Солу / Better Call Saul / Сезон: 4 / Серии: 1-10 из 10 [2018 WEBRip 1080p] [MVO] killermax2013 Скачать
1 | 0
Зарубежные сериалы [ 5.8 GB ] Лучше звоните Солу / Better Call Saul / Сезон: 4 / Серии: 1-10 из 10 [2018 WEBRip] [MVO] killermax2013 Скачать
1 | 0
Зарубежные сериалы [ 15.45 GB ] Лучше звоните Солу / Better Call Saul / Сезон: 4 / Серии: 1-10 из 10 [2018 WEBRip 720p] MVO [Lostfilm] bober100 Скачать
1 | 0
Зарубежные сериалы [ 25.17 GB ] Лучше звоните Солу / Better Call Saul / Сезон: 4 / Серии: 1-10 из 10 [2018 WEBRip 1080p] MVO [Baibako] bober100 Скачать
1 | 0
Зарубежные сериалы [ 7.64 GB ] Лучше звоните Солу / Better Call Saul / Сезон: 4 / Серии: 1-10 из 10 [2018 WEB-DL 720p] DVO [SunshineStudio] bober100 Скачать
1 | 0


Последний раз редактировалось: aksaleale (2018-10-27 03:32), всего редактировалось 5 раз(а)

28-11-2019 20:33  

Отключить всю рекламу на сайте

26-10-2018 17:13 Лучше звоните Солу Скачать торрент  

Наслаждайтесь друзья свежим 4-ым сезоном без рекламы и в любимой озвучке "Кубик в Кубе"! На раздаче 24/7/365!!! pb.wtf



26-10-2018 17:17 Лучше звоните Солу Скачать торрент  

Буду признателен Всем кто позолотит раздачу! pb.wtf



26-10-2018 19:30 Лучше звоните Солу Скачать торрент  

aksaleale писал(а):

Наслаждайтесь друзья свежим 4-ым сезоном без рекламы и в любимой озвучке "Кубик в Кубе"! На раздаче 24/7/365!!!

А о том что это 4 сезон можно узнать только из твоего комента. А о кличестве серий можно узнать явно не из шапки раздачи. Исправь пока модер не ткнул носомpb.wtf



27-10-2018 02:24 Лучше звоните Солу Скачать торрент  

-ShaMan- писал(а):

aksaleale писал(а):

Наслаждайтесь друзья свежим 4-ым сезоном без рекламы и в любимой озвучке "Кубик в Кубе"! На раздаче 24/7/365!!!

А о том что это 4 сезон можно узнать только из твоего комента. А о кличестве серий можно узнать явно не из шапки раздачи. Исправь пока модер не ткнул носом

Поправил вроде) Не ругайтесь сильно,опыт еще не большой... pb.wtf



27-10-2018 06:55 Лучше звоните Солу Скачать торрент  

Топик был перенесен из форума Оформление раздач (Наши, Зарубежные Сериалы) в форум Зарубежные сериалы


-Lexx-pb.wtf



    Дорогой пользователь! Огромная просьба, поблагодарите релизера, оцените раздачу и оставьте свои комментарий, если Вы скачали Лучше звоните Солу через торрент бесплатно! Внесите свою лепту в развитие PiratBit!
    Комментировать посты могут только пользователи прошедшие не сложную регистрацию
    Показать сообщения:    

    Лучше звоните Солу через торрент
    Скачать бесплатно Лучше звоните Солу
    Лучше звоните Солу скачать торрент
    Лучше звоните Солу смотреть онлайн
    Cкачать фильм Лучше звоните Солу бесплатно
    Лучше звоните Солу скачать торрент в хорошем качестве
    Лучше звоните Солу смотреть онлайн бесплатно в хорошем качестве


    Вы не можете начинать темы
    Вы не можете отвечать на сообщения
    Вы не можете редактировать свои сообщения
    Вы не можете удалять свои сообщения
    Вы не можете голосовать в опросах
    Вы не можете прикреплять файлы к сообщениям
    Вы можете скачивать файлы