Ссылка на приватное зеркало всего за 1$. Внимание количество ограничено!!!

iTunes

iTunes

iTunes

1

iTunes

iTunes

iTunes

WEBRip

iTunes

30
pack

$ от Little Big

ВАЖНО

!!Акция!!

Alien_RageХит недели

RePack

Resident Evil 21

ИГРА 18+

pack

RePack

jed

!!Акция!!

Alien_Rage

RePack

fifa19

RePack

Assassins Creed: Odyssey

RePack

NEED FOR SPEED™ PAYBACK

4 сезон

9 сезон

Бесстыжие 9 сезон

Все сериалы

все сериалы на PB.wtf

RePack

FAR CRY 5
  

Царь Скорпионов: Книга Душ / The Scorpion King: Book of Souls(Дон Майкл Пол) [2018 г., Фэнтези, боевик, приключения, WEBRip 1080p, Любительский (многоголосый)(MUZOBOZ)] pb.wtf

Царь Скорпионов: Книга Душ через торрент pb.wtf

Раздают: 1 [ 0 KB/s ]
Размер: 4.24 GB | Добавлен: 1 год 9 мес. назад | Торрент скачан:672 раза
Скачать  

27-10-2018 03:48 Царь Скорпионов: Книга Душ Скачать торрент  

Царь Скорпионов: Книга Душ / The Scorpion King: Book of Souls
Год выпуска: 2018
Страна: США
Жанр: Фэнтези, боевик, приключения
Продолжительность: 01:41:42
Перевод: Любительский (многоголосый)(MUZOBOZ)
Субтитры: Отсутствуют

Режиссер: Дон Майкл Пол

rating

В ролях: Зэк МакГоун, Нэйтан Джонс, Питер Менса, Кэти Луиз Саундерс, Перл Туси, Ховард Чарльз, Нг Мэйлин, Инге Бекманн, Ризель Янук, Стефани Шилдкнект

Описание: Царь Скорпионов объединяется с женщиной-воином Талой, сестрой Короля Нубии. Вместе они ищут легендарную Книгу Душ. Эта книга поможет им положить конец господству Лорда Войны.

Доп. информация: Присутствуют вставки текстовой рекламы

Качество: WEBRip 1080p
Формат: MKV
Видео кодек: H.264
Аудио кодек: AC3
Видео: AVC/H.264, 1916x1076, ~5465 Kbps
Аудио#1: AC-3, 2 ch, 384 Kbps
скриншот   скриншот   скриншот   скриншот  

Общее
Полное имя : E:\NNM\Царь Скорпионов\Scorpion King 5 2018 WEB-DLRip 1080p-LQ.mkv
Формат : Matroska
Версия формата : Version 2
Размер файла : 4,24 Гбайт
Продолжительность : 1 ч. 41 м.
Режим общего битрейта : Переменный
Общий поток : 5968 Кбит/сек
Программа кодирования : libmatroska 1.4.1

Видео
Идентификатор : 1
Формат : AVC
Формат/Информация : Advanced Video Codec
Профиль формата : High@L4.1
Настройки формата : CABAC / 4 Ref Frames
Параметр CABAC формата : Да
Параметр RefFrames формата : 4 кадра
Идентификатор кодека : V_MPEG4/ISO/AVC
Продолжительность : 1 ч. 41 м.
Вид битрейта : Переменный
Битрейт : 5465 Кбит/сек
Максимальный битрейт : 6200 Кбит/сек
Ширина : 1916 пикселей
Высота : 1076 пикселей
Соотношение сторон : 16:9
Режим частоты кадров : Постоянный
Частота кадров : 23,976 (24000/1001) кадра/сек
Стандарт вещания : Component
Цветовое пространство : YUV
Субдискретизация насыщенности : 4:2:0
Битовая глубина : 8 бит
Тип развёртки : Прогрессивная
Бит/(Пиксели*Кадры) : 0.111
Размер потока : 3,88 Гбайт (92%)
Default : Нет
Forced : Нет
Цветовой диапазон : Limited
Основные цвета : BT.709
Характеристики трансфера : BT.709
Коэффициенты матрицы : BT.709

Аудио
Идентификатор : 2
Формат : AC-3
Формат/Информация : Audio Coding 3
Идентификатор кодека : A_AC3
Продолжительность : 1 ч. 41 м.
Вид битрейта : Постоянный
Битрейт : 384 Кбит/сек
Каналы : 2 канала
Расположение каналов : Front: L R
Частота : 48,0 КГц
Частота кадров : 31,250 кадров/сек (1536 SPF)
Битовая глубина : 16 бит
Метод сжатия : С потерями
Размер потока : 279 Мбайт (6%)
ServiceKind/String : Complete Main
Default : Нет
Forced : Нет

pb.wtf



Скачать Царь Скорпионов: Книга Душ через торрент http://pic1.kartinco.top/images/11/lyb5s.jpg Скачать фильм Царь Скорпионов: Книга Душ через торрент бесплантно в хорошем качестве Описание: Царь Скорпионов объединяется с женщиной-воином Талой, сестрой Короля Нубии. Вместе они ищут легендарную Книгу Душ. Эта книга ... 9.2 10 14
Info! Золотая раздача, скачанное не засчитывается.
Торрент: Зарегистрирован [2018-10-27 03:48] · скачан: 672 раз
Статус: T временная
Размер: 4.24 GB
Как cкачать? Как скачать Царь Скорпионов: Книга Душ через торрент | qTorrent

28-11-2019 20:33  

Отключить всю рекламу на сайте

28-10-2018 13:45 Царь Скорпионов: Книга Душ Скачать торрент  

АСИЛУМ ???pb.wtf



28-10-2018 14:20 Царь Скорпионов: Книга Душ Скачать торрент  

да нормуль на разок !!! спасибо автору!!! pb.wtf



    Дорогой пользователь! Огромная просьба, поблагодарите релизера, оцените раздачу и оставьте свои комментарий, если Вы скачали Царь Скорпионов: Книга Душ через торрент бесплатно! Внесите свою лепту в развитие PiratBit!
    Комментировать посты могут только пользователи прошедшие не сложную регистрацию
    Показать сообщения:    

    Царь Скорпионов: Книга Душ через торрент
    Скачать бесплатно Царь Скорпионов: Книга Душ
    Царь Скорпионов: Книга Душ скачать торрент
    Царь Скорпионов: Книга Душ смотреть онлайн
    Cкачать фильм Царь Скорпионов: Книга Душ бесплатно
    Царь Скорпионов: Книга Душ скачать торрент в хорошем качестве
    Царь Скорпионов: Книга Душ смотреть онлайн бесплатно в хорошем качестве


    Вы не можете начинать темы
    Вы не можете отвечать на сообщения
    Вы не можете редактировать свои сообщения
    Вы не можете удалять свои сообщения
    Вы не можете голосовать в опросах
    Вы не можете прикреплять файлы к сообщениям
    Вы можете скачивать файлы