новый адрес
Ссылка на приватное зеркало всего за 1$. Внимание количество ограничено!!!

iTunes

1+1

iTunes

мы

WEB-DL

1

iTunes

Чернобыль

iTunes

Ральф против интернета

Лицензия

ПШазам

Лицензия

Оно 2

Лицензия

30
pack

Вам бонус

ВАЖНО

!!Акция!!

Alien_RageХит недели

RePack

Resident Evil 21

ИГРА 18+

pack

RePack

jed

!!Акция!!

Alien_Rage

RePack

fifa19

RePack

Assassins Creed: Odyssey

RePack

NEED FOR SPEED™ PAYBACK

3 сезон

9 сезон

Бесстыжие 9 сезон

Все сериалы

все сериалы на PB.wtf

RePack

FAR CRY 5
Ребята, катастрофически не хватает 1900р. для оплаты серверов за Октябрь (всвязи с блокировками трафик упал в 3 раза), 1-2р., выручайте.
  

Непрощенный (Сарик Андреасян) [2018, Россия, Драма, WEB-DL 1080p] pb.wtf

Непрощенный через торрент pb.wtf

Раздают: 9 [ 2 KB/s ]
Размер: 4 GB | Добавлен: 1 год 1 мес. назад | Торрент скачан:2195 раз
Скачать  

27-10-2018 03:49 Непрощенный Скачать торрент  

Непрощенный


  • Год выпуска: 2018
  • Страна: Россия
  • Жанр: Драма
  • Продолжительность: 01:44:14
  • Перевод: Не требуется
  • Режиссер: Сарик Андреасян
  • В ролях:
    Дмитрий Нагиев, Марджан Аветисян, Самвел Мужикян, Роза Хайруллина, Карина Каграманян, Артём Шкляев, Михаил Горевой, Ирина Безрукова, Вадим Цаллати, Себастьян Сисак, Андрюс Паулавичюс, Микаэл Джанибекян, Оливье Сиу



  • Жизнь для инженера-строителя Виталия Калоева остановилась в ту самую секунду, когда самолет "Башкирских авиалиний", в котором летели его жена и дети, столкнулся над Боденским озером с транспортным самолетом. Не дождавшись семьи в аэропорту Барселоны, Виталий отправляется на место катастрофы — и находит их тела. Калоев теряет все, ради чего он жил. Теперь его некогда наполненный детским смехом дом — кладбище. Виталий ищет диспетчера, по вине которого погибла его семья, он хочет услышать слова извинения... Фильм основан на реальных событиях.
  • Рейтинг:


  • Качество: WEB-DL 1080p
  • Формат: :MKV
  • Видео кодек: AVC
  • Аудио кодек: AC3
  • Видео: 5109 Кбит/сек, 1920*804 (2,40:1), в 25,000 кадров/сек, AVC
  • Аудио: 384 Кбит/сек, 48,0 КГц, 16 бит, 6 каналов, AC-3

    Общее
    Уникальный идентификатор : 217622530918777154444149317641715475845 (0xA3B8932BCB0E4A8AAA7351B2F7D66585)
    Полное имя : G:\Neproschennyy.2018.WEB-DL.(1080p).Getty.mkv
    Формат : Matroska
    Версия формата : Version 4 / Version 2
    Размер файла : 4,00 Гбайт
    Продолжительность : 1 ч. 44 м.
    Общий поток : 5495 Кбит/сек
    Название фильма : Neproschennyy.2018.WEB-DL.(1080p).Getty
    Дата кодирования : UTC 2018-10-26 23:20:45
    Программа кодирования : mkvmerge v7.8.0 ('River Man') 32bit built on Mar 27 2015 16:18:02
    Библиотека кодирования : libebml v1.3.1 + libmatroska v1.4.2

    Видео
    Идентификатор : 1
    Формат : AVC
    Формат/Информация : Advanced Video Codec
    Профиль формата : High@L4
    Настройки формата : CABAC / 4 Ref Frames
    Параметр CABAC формата : Да
    Параметр RefFrames формата : 4 кадра
    Идентификатор кодека : V_MPEG4/ISO/AVC
    Продолжительность : 1 ч. 44 м.
    Битрейт : 5109 Кбит/сек
    Ширина : 1920 пикселей
    Высота : 804 пикселя
    Соотношение сторон : 2,40:1
    Режим частоты кадров : Постоянный
    Частота кадров : 25,000 кадров/сек
    Цветовое пространство : YUV
    Субдискретизация насыщенности : 4:2:0
    Битовая глубина : 8 бит
    Тип развёртки : Прогрессивная
    Бит/(Пиксели*Кадры) : 0.132
    Размер потока : 3,72 Гбайт (93%)
    Default : Да
    Forced : Нет

    Аудио
    Идентификатор : 2
    Формат : AC-3
    Формат/Информация : Audio Coding 3
    Идентификатор кодека : A_AC3
    Продолжительность : 1 ч. 44 м.
    Вид битрейта : Постоянный
    Битрейт : 384 Кбит/сек
    Каналы : 6 каналов
    Расположение каналов : Front: L C R, Side: L R, LFE
    Частота : 48,0 КГц
    Частота кадров : 31,250 кадров/сек (1536 SPF)
    Битовая глубина : 16 бит
    Метод сжатия : С потерями
    Размер потока : 286 Мбайт (7%)
    ServiceKind/String : Complete Main
    Default : Да
    Forced : Нет



    Скриншоты:
    скриншот   скриншот   скриншот   скриншот   скриншот   скриншот   скриншот  
    скриншот  


    pb.wtf



  • Скачать Непрощенный через торрент http://pic1.kartinco.top/images/11/38dtv.jpg Скачать фильм Непрощенный через торрент бесплантно в хорошем качестве qw.png Жизнь для инженера-строителя Виталия Калоева остановилась в ту самую секунду, когда самолет "Башкирских авиалиний", в котором ... 9.7 10 43
    Info! Золотая раздача, скачанное не засчитывается.
    Торрент: Зарегистрирован [2018-10-27 04:16] · скачан: 2 195 раз
    Статус: √ проверено
    Размер: 4 GB
    Как cкачать? Как скачать Непрощенный через торрент | qTorrent

    % Раздел Тема Автор DL S | L
    Фильмы [HD 720p, 1080p] (Хороший звук DUB, MVO) [ 12.41 GB ] Непрощенный / Unforgiven [1992 BDRip 1080p] [Remastered] Dub + 2xMVO + DVO + 6xAVO - KORSAR kisa1980 Скачать
    1 | 0
    Фильмы [HD 720p, 1080p] (Хороший звук DUB, MVO) [ 7.34 GB ] Непрощенный / Unforgiven [1992 BDRip 720p] [Remastered] Dub + 2xMVO + DVO + 6xAVO - KORSAR kisa1980 Скачать
    2 | 0
    Наши новые фильмы 2018-2019 [ 1.32 GB ] Непрощенный [2018 WEB-DLRip-AVC] [Русский] .R.G.Generalfilm White Smoke Скачать
    2 | 0
    Наши новые фильмы 2018-2019 [ 1.62 GB ] Непрощенный [2018 WEB-DLRip-AVC] bober100 Скачать
    2 | 0
    Наши фильмы (HD, WEB-DL 720p, 1080p) [ 2.14 GB ] Непрощенный [2018 WEB-DL 720p] bober100 Скачать
    4 | 0
    Наши новые фильмы 2018-2019 [ 1.45 GB ] Непрощенный [2018 Россия WEB-DLRip-AVC] ExKinoRay Enigma2010 Скачать
    15 | 0
    Наши новые фильмы 2018-2019 [ 1.49 GB ] Непрощенный [2018 Россия WEB-DLRip] GEKADOL Скачать
    3 | 0

    28-11-2019 20:33  

    Отключить всю рекламу на сайте

    27-10-2018 06:04 Непрощенный Скачать торрент  

    Фильм отличный! Смотрел в кинотеатре. С удовольствием ещё раз пересмотрю. Раздающий красавчик!pb.wtf



    27-10-2018 10:16 Непрощенный Скачать торрент  

    судя по отзывам на кинопоиске - снимать сарик всё равно не научился.pb.wtf



    27-10-2018 11:55 Непрощенный Скачать торрент  

    Доброго всем дня, фильм вытянут Нагиевым, игра великолепная.
    P.S. где кот???pb.wtf



    27-10-2018 13:09 Непрощенный Скачать торрент  

    плашка приятного просмотра прям к местуpb.wtf



    27-10-2018 19:37 Непрощенный Скачать торрент  

    Ща зазырю! Скажу своё мнение.pb.wtf



    29-10-2018 17:29 Непрощенный Скачать торрент  

    фильм понравился. особенно когда думаешь, что на реальных событиях, так душу рвёт.pb.wtf



    30-10-2018 19:38 Непрощенный Скачать торрент  

    Скачаю и гляну, но боюсь, что после всех последних клоунских ролей Нагиева в низкопробных современных сериалишках, серьёзно отнестись к нему и играемому образу героя в этом фильме не смогу.pb.wtf



    31-10-2018 06:56 Непрощенный Скачать торрент  

    Сильный фильм! Нагиев удивил!pb.wtf



      Дорогой пользователь! Огромная просьба, поблагодарите релизера, оцените раздачу и оставьте свои комментарий, если Вы скачали Непрощенный через торрент бесплатно! Внесите свою лепту в развитие PiratBit!
      Комментировать посты могут только пользователи прошедшие не сложную регистрацию
      Показать сообщения:    

      Непрощенный через торрент
      Скачать бесплатно Непрощенный
      Непрощенный скачать торрент
      Непрощенный смотреть онлайн
      Cкачать фильм Непрощенный бесплатно
      Непрощенный скачать торрент в хорошем качестве
      Непрощенный смотреть онлайн бесплатно в хорошем качестве


      Вы не можете начинать темы
      Вы не можете отвечать на сообщения
      Вы не можете редактировать свои сообщения
      Вы не можете удалять свои сообщения
      Вы не можете голосовать в опросах
      Вы не можете прикреплять файлы к сообщениям
      Вы можете скачивать файлы