новый адрес
Мега распродажа FORZA HORIZON 4 ULTIMATE+ВСЕ DLC+ОНЛАЙН всего за 499р. 349 руб. (супер цена). Внимание количество ограничено!!!

iTunes

1+1

iTunes

мы

iTunes

1

iTunes

Чернобыль

iTunes

Ральф против интернета

Лицензия

ПШазам

Лицензия

Игра престолов

Лицензия

30
pack

ВАЖНО

!!Акция!!

Alien_RageХит недели

RePack

Resident Evil 21

ИГРА 18+

pack

RePack

Metro:Exodus

!!Акция!!

Alien_Rage

RePack

fifa19

RePack

Assassins Creed: Odyssey

RePack

NEED FOR SPEED™ PAYBACK

3 сезон

9 сезон

Бесстыжие 9 сезон

Все сериалы

все сериалы на PB.wtf

RePack

FAR CRY 5
Ребята, катастрофически не хватает 1900р. для оплаты серверов за Октябрь (всвязи с блокировками трафик упал в 3 раза), 1-2р., выручайте.
  

Непрощенный (Сарик Андреасян) [2018, Россия, Драма, WEB-DLRip] pb.wtf

Непрощенный через торрент pb.wtf

Раздают: 1 [ 0 KB/s ]
Размер: 1.49 GB | Добавлен: 1 год назад | Торрент скачан:703 раза
Скачать  

27-10-2018 03:51 Непрощенный Скачать торрент  

Непрощенный


  • Год выпуска: 2018
  • Страна: Россия
  • Жанр: Драма
  • Продолжительность: 01:44:14
  • Перевод: Не требуется
  • Режиссер: Сарик Андреасян
  • В ролях:
    Дмитрий Нагиев, Марджан Аветисян, Самвел Мужикян, Роза Хайруллина, Карина Каграманян, Артём Шкляев, Михаил Горевой, Ирина Безрукова, Вадим Цаллати, Себастьян Сисак, Андрюс Паулавичюс, Микаэл Джанибекян, Оливье Сиу



  • Жизнь для инженера-строителя Виталия Калоева остановилась в ту самую секунду, когда самолет "Башкирских авиалиний", в котором летели его жена и дети, столкнулся над Боденским озером с транспортным самолетом. Не дождавшись семьи в аэропорту Барселоны, Виталий отправляется на место катастрофы — и находит их тела. Калоев теряет все, ради чего он жил. Теперь его некогда наполненный детским смехом дом — кладбище. Виталий ищет диспетчера, по вине которого погибла его семья, он хочет услышать слова извинения... Фильм основан на реальных событиях.
  • Рейтинг:


  • Качество: WEB-DLRip
  • Формат: :AVI
  • Видео кодек: XviD
  • Аудио кодек: AC3
  • Видео: 1652 Кбит/сек, 720*304 (2,35:1), в 25,000 кадров/сек, MPEG-4 Visual (XviD)
  • Аудио: 384 Кбит/сек, 48,0 КГц, 16 бит, 6 каналов, AC-3

    Общее
    Полное имя : G:\Neproschennyy.2018.WEB-DLRip.25Kuzmich.avi
    Формат : AVI
    Формат/Информация : Audio Video Interleave
    Размер файла : 1,49 Гбайт
    Продолжительность : 1 ч. 44 м.
    Общий поток : 2046 Кбит/сек
    Программа кодирования : VirtualDubMod 1.5.10.3 | www.virtualdub-fr.org || (build 2550/release)
    Библиотека кодирования : VirtualDubMod build 2550/release

    Видео
    Идентификатор : 0
    Формат : MPEG-4 Visual
    Профиль формата : Advanced Simple@L5
    Настройки формата : BVOP1
    Параметр BVOP формата : 1
    Параметр QPel формата : Нет
    Параметр GMC формата : Без точки перехода
    Параметр матрицы формата : Default (MPEG)
    Идентификатор кодека : XVID
    Идентификатор кодека/Подсказка : XviD
    Продолжительность : 1 ч. 44 м.
    Битрейт : 1652 Кбит/сек
    Ширина : 720 пикселей
    Высота : 304 пикселя
    Соотношение сторон : 2,35:1
    Частота кадров : 25,000 кадров/сек
    Цветовое пространство : YUV
    Субдискретизация насыщенности : 4:2:0
    Битовая глубина : 8 бит
    Тип развёртки : Прогрессивная
    Метод сжатия : С потерями
    Бит/(Пиксели*Кадры) : 0.302
    Размер потока : 1,20 Гбайт (81%)
    Библиотека кодирования : XviD 1.2.1 (UTC 2008-12-04)

    Аудио
    Идентификатор : 1
    Формат : AC-3
    Формат/Информация : Audio Coding 3
    Идентификатор кодека : 2000
    Продолжительность : 1 ч. 44 м.
    Вид битрейта : Постоянный
    Битрейт : 384 Кбит/сек
    Каналы : 6 каналов
    Расположение каналов : Front: L C R, Side: L R, LFE
    Частота : 48,0 КГц
    Частота кадров : 31,250 кадров/сек (1536 SPF)
    Битовая глубина : 16 бит
    Метод сжатия : С потерями
    Размер потока : 286 Мбайт (19%)
    Выравнивание : Разделение по промежуткам
    Продолжительность промежутка : 40 мс. (1,00 видеокадр)
    Время предзагрузки промежутка : 500 мс.
    ServiceKind/String : Complete Main



    Скриншоты:
    скриншот   скриншот   скриншот   скриншот   скриншот   скриншот   скриншот  
    скриншот  


    pb.wtf



  • Скачать Непрощенный через торрент http://pic1.kartinco.top/images/11/38dtv.jpg Скачать фильм Непрощенный через торрент бесплантно в хорошем качестве qw.png Жизнь для инженера-строителя Виталия Калоева остановилась в ту самую секунду, когда самолет "Башкирских авиалиний", в котором ... 9.4 10 23
    Торрент: Зарегистрирован [2018-10-27 03:51] · скачан: 703 раз
    Статус: √ проверено
    Размер: 1.49 GB
    Как cкачать? Как скачать Непрощенный через торрент | qTorrent

    % Раздел Тема Автор DL S | L
    Фильмы [HD 720p, 1080p] (Хороший звук DUB, MVO) [ 12.41 GB ] Непрощенный / Unforgiven [1992 BDRip 1080p] [Remastered] Dub + 2xMVO + DVO + 6xAVO - KORSAR kisa1980 Скачать
    1 | 0
    Фильмы [HD 720p, 1080p] (Хороший звук DUB, MVO) [ 7.34 GB ] Непрощенный / Unforgiven [1992 BDRip 720p] [Remastered] Dub + 2xMVO + DVO + 6xAVO - KORSAR kisa1980 Скачать
    1 | 0
    Наши фильмы (HD, WEB-DL 720p, 1080p) [ 4 GB ] Непрощенный [2018 Россия WEB-DL 1080p] GEKADOL Скачать
    10 | 0
    Наши новые фильмы 2018-2019 [ 1.32 GB ] Непрощенный [2018 WEB-DLRip-AVC] [Русский] .R.G.Generalfilm White Smoke Скачать
    4 | 0
    Наши новые фильмы 2018-2019 [ 1.62 GB ] Непрощенный [2018 WEB-DLRip-AVC] bober100 Скачать
    5 | 0
    Наши фильмы (HD, WEB-DL 720p, 1080p) [ 2.14 GB ] Непрощенный [2018 WEB-DL 720p] bober100 Скачать
    5 | 0
    Наши новые фильмы 2018-2019 [ 1.45 GB ] Непрощенный [2018 Россия WEB-DLRip-AVC] ExKinoRay Enigma2010 Скачать
    29 | 0


    >> Регистрируемся здесь <<






    Отзывы и комментарии о схеме читаем и пишем здесь: ---> Отзывы и комментарии о схеме

    Новые благодарочки в телеграм довольных пользователей:
    скриншот   скриншот   скриншот   скриншот   скриншот
      Дорогой пользователь! Огромная просьба, поблагодарите релизера, оцените раздачу и оставьте свои комментарий, если Вы скачали Непрощенный через торрент бесплатно! Внесите свою лепту в развитие PiratBit!
      Комментировать посты могут только пользователи прошедшие не сложную регистрацию
      Показать сообщения:    

      Непрощенный через торрент
      Скачать бесплатно Непрощенный
      Непрощенный скачать торрент
      Непрощенный смотреть онлайн
      Cкачать фильм Непрощенный бесплатно
      Непрощенный скачать торрент в хорошем качестве
      Непрощенный смотреть онлайн бесплатно в хорошем качестве


      Вы не можете начинать темы
      Вы не можете отвечать на сообщения
      Вы не можете редактировать свои сообщения
      Вы не можете удалять свои сообщения
      Вы не можете голосовать в опросах
      Вы не можете прикреплять файлы к сообщениям
      Вы можете скачивать файлы