новый адрес
Ссылка на приватное зеркало всего за 1$. Внимание количество ограничено!!!

iTunes

1+1

iTunes

мы

WEB-DL

1

iTunes

Чернобыль

iTunes

Ральф против интернета

Лицензия

ПШазам

Лицензия

Оно 2

Лицензия

30
pack

Вам бонус

ВАЖНО

!!Акция!!

Alien_RageХит недели

RePack

Resident Evil 21

ИГРА 18+

pack

RePack

jed

!!Акция!!

Alien_Rage

RePack

fifa19

RePack

Assassins Creed: Odyssey

RePack

NEED FOR SPEED™ PAYBACK

3 сезон

9 сезон

Бесстыжие 9 сезон

Все сериалы

все сериалы на PB.wtf

RePack

FAR CRY 5
Ребята, катастрофически не хватает 1900р. для оплаты серверов за Октябрь (всвязи с блокировками трафик упал в 3 раза), 1-2р., выручайте.
  

Фургон смерти / The Toybox (Том Нэйджел) [2018, Ужасы, триллер, WEB-DLRip-AVC] MVO [HDRezka Studio] pb.wtf

Фургон смерти через торрент pb.wtf

Размер: 1.63 GB | Добавлен: 1 год 1 мес. назад | Торрент скачан:268 раз
Скачать  

27-10-2018 12:10 Фургон смерти Скачать торрент  

Фургон смерти / The Toybox Год выпуска: 2018
Страна: США
Жанр: Ужасы, триллер
Продолжительность: 01:34:39
Перевод: Профессиональный (многоголосый) | HDRezka Studio
Субтитры: Английские (полные, SDH)

Режиссер: Том Нэйджел

rating

В ролях:

Дэнис Ричардс, Миша Бартон, Кэти Кин, Мэтт Мерсер, Эндрю Стэтон, Брайан Нэйджел, Джефф Дентон, Дэвид Грейтхаус, Грег Виоланд

Описание:

Купив старый поддержанный трейлер, благополучная американская семья отправляется на уикенд в глубь стран смотреть пещерную живопись. На дороге с машиной начинают происходить странные вещи. Под конец, потеряв тормоза, фургон останавливается. В результате аварии погибает один человек. Но на этом отсчет жертв не оканчивается. Узнав, что купленный фургон в свое время принадлежал серийному маньяку-убийце, оставшиеся в живых пытаются покинуть трейлер.

Качество: WEB-DLRip-AVC
Формат: MKV

Видео: 1024x434 (2.35:1), 23,976 fps, x264 ~1 833 kbps avg, 0.172 bit/pixel
Аудио#1: 48 kHz, AC3 Dolby Digital, 2 (L,R) ch, ~192.00 kbps avg | RUS (HDRezka Studio)
Аудио#2: 48 kHz, AC3 Dolby Digital, 3/2 (L,C,R,l,r) + LFE ch, ~448.00 kbps avg | ENG
скриншот  скриншот  скриншот  скриншот  

Общее
Уникальный идентификатор : 144818632435045987683450292127340676863 (0x6CF30DD79BF91A170505D40446F7C6FF)
Полное имя : F:OlLanDGroupThe.Toybox.2018.WEB-DLRip(AVC).OlLanDGroup.mkv
Формат : Matroska
Версия формата : Version 4 / Version 2
Размер файла : 1,63 Гбайт
Продолжительность : 1 ч. 34 м.
Общий поток : 2473 Кбит/сек
Название фильма : The.Toybox.2018 #TorpedoUK#
Дата кодирования : UTC 2018-10-27 01:06:55
Программа кодирования : mkvmerge v25.0.0 ('Prog Noir') 64-bit
Библиотека кодирования : libebml v1.3.6 + libmatroska v1.4.9

Видео
Идентификатор : 1
Формат : AVC
Формат/Информация : Advanced Video Codec
Профиль формата : High@L4.1
Параметр CABAC формата : Да
Параметр ReFrames формата : 10 кадров
Идентификатор кодека : V_MPEG4/ISO/AVC
Продолжительность : 1 ч. 34 м.
Битрейт : 1833 Кбит/сек
Ширина : 1024 пикселя
Высота : 434 пикселя
Соотношение сторон : 2,35:1
Режим частоты кадров : Постоянный
Частота кадров : 23,976 (24000/1001) кадра/сек
Цветовое пространство : YUV
Субдискретизация насыщенности : 4:2:0
Битовая глубина : 8 бит
Тип развёртки : Прогрессивная
Бит/(Пиксели*Кадры) : 0.172
Размер потока : 1,21 Гбайт (74%)
Библиотека кодирования : x264 core 146 r2538 121396c
Настройки программы : cabac=1 / ref=10 / deblock=1:-2:-3 / analyse=0x3:0x113 / me=umh / subme=11 / psy=1 / psy_rd=0.95:0.07 / mixed_ref=1 / me_range=48 / chroma_me=1 / trellis=2 / 8x8dct=1 / cqm=0 / deadzone=21,11 / fast_pskip=1 / chroma_qp_offset=-3 / threads=6 / lookahead_threads=1 / sliced_threads=0 / nr=0 / decimate=1 / interlaced=0 / bluray_compat=0 / constrained_intra=0 / bframes=10 / b_pyramid=2 / b_adapt=2 / b_bias=0 / direct=3 / weightb=1 / open_gop=0 / weightp=2 / keyint=240 / keyint_min=23 / scenecut=40 / intra_refresh=0 / rc_lookahead=40 / rc=2pass / mbtree=0 / bitrate=1833 / ratetol=1.0 / qcomp=0.60 / qpmin=0 / qpmax=69 / qpstep=4 / cplxblur=20.0 / qblur=0.5 / vbv_maxrate=50000 / vbv_bufsize=62500 / nal_hrd=none / filler=0 / ip_ratio=1.40 / pb_ratio=1.30 / aq=1:1.00
Язык : English
Default : Да
Forced : Нет

Аудио #1
Идентификатор : 2
Формат : AC-3
Формат/Информация : Audio Coding 3
Расширение режима : CM (complete main)
Параметр Endianness формата : Big
Идентификатор кодека : A_AC3
Продолжительность : 1 ч. 34 м.
Вид битрейта : Постоянный
Битрейт : 192 Кбит/сек
Каналы : 2 канала
Расположение каналов : Front: L R
Частота : 48,0 КГц
Частота кадров : 31,250 кадров/сек (1536 spf)
Битовая глубина : 16 бит
Метод сжатия : С потерями
Размер потока : 130 Мбайт (8%)
Заголовок : MVO [HDRezka Studio]
Язык : Russian
Default : Да
Forced : Нет

Аудио #2
Идентификатор : 3
Формат : AC-3
Формат/Информация : Audio Coding 3
Расширение режима : CM (complete main)
Параметр Endianness формата : Big
Идентификатор кодека : A_AC3
Продолжительность : 1 ч. 34 м.
Вид битрейта : Постоянный
Битрейт : 448 Кбит/сек
Каналы : 6 каналов
Расположение каналов : Front: L C R, Side: L R, LFE
Частота : 48,0 КГц
Частота кадров : 31,250 кадров/сек (1536 spf)
Битовая глубина : 16 бит
Метод сжатия : С потерями
Размер потока : 303 Мбайт (18%)
Заголовок : [Original]
Язык : English
Default : Нет
Forced : Нет

Текст #1
Идентификатор : 4
Формат : UTF-8
Идентификатор кодека : S_TEXT/UTF8
Идентификатор кодека/Информация : UTF-8 Plain Text
Продолжительность : 1 ч. 31 м.
Битрейт : 32 бит/сек
Count of elements : 921
Размер потока : 21,7 Кбайт (0%)
Заголовок : Full
Язык : English
Default : Нет
Forced : Нет

Текст #2
Идентификатор : 5
Формат : UTF-8
Идентификатор кодека : S_TEXT/UTF8
Идентификатор кодека/Информация : UTF-8 Plain Text
Продолжительность : 1 ч. 32 м.
Битрейт : 38 бит/сек
Count of elements : 1155
Размер потока : 26,4 Кбайт (0%)
Заголовок : SDH
Язык : English
Default : Нет
Forced : Нет

pb.wtf



Скачать Фургон смерти через торрент http://i96.fastpic.ru/big/2018/1027/02/595380bdd04e65f0b6b8e07acfa7f202.jpg Скачать фильм Фургон смерти через торрент бесплантно в хорошем качестве Описание: Купив старый поддержанный трейлер, благополучная американская семья отправляется на уикенд в глубь стран смотреть пещерную ... 10 10 8
Торрент: Зарегистрирован [2018-10-27 12:10] · скачан: 268 раз
Статус: T временная
Размер: 1.63 GB
Как cкачать? Как скачать Фургон смерти через торрент | qTorrent

% Раздел Тема Автор DL S | L
Фильмы (Blu-ray, BD-Remux, HDDVD) [ 15.98 GB ] Фургон смерти / The Toybox [2018 BD Remux 1080p] 2xMVO [ТВ3 HDRezka Studio] bober100 Скачать
1 | 0
T Фильмы (WEB-DL 720p, 1080p) [ 4.22 GB ] Фургон смерти / The Toybox [2018 WEB-DL 1080p] MVO [HDRezka Studio] bober100 Скачать
1 | 0

28-11-2019 20:33  

Отключить всю рекламу на сайте

27-10-2018 12:54 Фургон смерти Скачать торрент  

Почему рейтинг так низок. Фильм вроде очень ничего?
Почему не приходят уведомления о новых сообщениях хоть и стоит галочка.?pb.wtf



27-10-2018 16:14 Фургон смерти Скачать торрент  

на PB постоянно мало комментов я заметилpb.wtf



28-10-2018 03:18 Фургон смерти Скачать торрент  

А к уведомления то почему не приходят на почту? Везде галочки стоят. В спаме смотрелpb.wtf



29-10-2018 08:08 Фургон смерти Скачать торрент  

фильм тот еще шлак, не тратьте время!pb.wtf



29-10-2018 18:30 Фургон смерти Скачать торрент  

бррр, это же надо такую муть снять.
похоже голливуд обнищал на стоящие сценарии ))pb.wtf



    Дорогой пользователь! Огромная просьба, поблагодарите релизера, оцените раздачу и оставьте свои комментарий, если Вы скачали Фургон смерти через торрент бесплатно! Внесите свою лепту в развитие PiratBit!
    Комментировать посты могут только пользователи прошедшие не сложную регистрацию
    Показать сообщения:    

    Фургон смерти через торрент
    Скачать бесплатно Фургон смерти
    Фургон смерти скачать торрент
    Фургон смерти смотреть онлайн
    Cкачать фильм Фургон смерти бесплатно
    Фургон смерти скачать торрент в хорошем качестве
    Фургон смерти смотреть онлайн бесплатно в хорошем качестве


    Вы не можете начинать темы
    Вы не можете отвечать на сообщения
    Вы не можете редактировать свои сообщения
    Вы не можете удалять свои сообщения
    Вы не можете голосовать в опросах
    Вы не можете прикреплять файлы к сообщениям
    Вы можете скачивать файлы