Ссылка на приватное зеркало нашего сайта всего за 1$. Внимание количество ограничено!!!

2 сезон

iTunes

1 сезон

1

2 сезон

2 сезон

iTunes

1 сезон

RePack

30

Ultimate

ВАЖНО

ИГРА 18+

pack

RePack

MK11
pack

Забери бонус

RePack

jed

!!Акция!!

Alien_Rage

RePack

fifa19

RePack

Assassins Creed: Odyssey

RePack

NEED FOR SPEED™ PAYBACK

4 сезон

9 сезон

Бесстыжие 9 сезон

Все сериалы

все сериалы на PB.wtf

RePack

FAR CRY 5
  

Фургон смерти / The Toybox (Том Нэйджел) [2018, Ужасы, триллер, WEB-DL 1080p] MVO [HDRezka Studio] pb.wtf

Фургон смерти через торрент pb.wtf

Размер: 4.22 GB | Добавлен: 2 года 1 мес. назад | Торрент скачан:93 раза
Скачать  

27-10-2018 12:10 Фургон смерти Скачать торрент  

Фургон смерти / The Toybox Год выпуска: 2018
Страна: США
Жанр: Ужасы, триллер
Продолжительность: 01:34:39
Перевод: Профессиональный (многоголосый) | HDRezka Studio
Субтитры: Английские (полные, SDH)

Режиссер: Том Нэйджел

rating

В ролях:

Дэнис Ричардс, Миша Бартон, Кэти Кин, Мэтт Мерсер, Эндрю Стэтон, Брайан Нэйджел, Джефф Дентон, Дэвид Грейтхаус, Грег Виоланд

Описание:

Купив старый поддержанный трейлер, благополучная американская семья отправляется на уикенд в глубь стран смотреть пещерную живопись. На дороге с машиной начинают происходить странные вещи. Под конец, потеряв тормоза, фургон останавливается. В результате аварии погибает один человек. Но на этом отсчет жертв не оканчивается. Узнав, что купленный фургон в свое время принадлежал серийному маньяку-убийце, оставшиеся в живых пытаются покинуть трейлер.

Качество: WEB-DL 1080p
Формат: MKV

Видео: 1920x816 (2.35:1), 23,976 fps, x264 ~5 746 kbps avg, 0.153 bit/pixel
Аудио#1: 48 kHz, AC3 Dolby Digital, 2 (L,R) ch, ~192.00 kbps avg | RUS (HDRezka Studio)
Аудио#2: 48 kHz, AC3 Dolby Digital, 3/2 (L,C,R,l,r) + LFE ch, ~448.00 kbps avg | ENG
скриншот  скриншот  скриншот  скриншот  

Общее
Уникальный идентификатор : 282512655421777657189866788884693707540 (0xD489F5517A887A40D74436B9CDE0EB14)
Полное имя : F:OlLanDGroupThe.Toybox.2018.WEB-DL(1080p).OlLanDGroup.mkv
Формат : Matroska
Версия формата : Version 4 / Version 2
Размер файла : 4,22 Гбайт
Продолжительность : 1 ч. 34 м.
Общий поток : 6388 Кбит/сек
Название фильма : The.Toybox.2018 #TorpedoUK#
Дата кодирования : UTC 2018-10-27 01:13:17
Программа кодирования : mkvmerge v25.0.0 ('Prog Noir') 64-bit
Библиотека кодирования : libebml v1.3.6 + libmatroska v1.4.9

Видео
Идентификатор : 1
Формат : AVC
Формат/Информация : Advanced Video Codec
Профиль формата : High@L4
Параметр CABAC формата : Да
Параметр ReFrames формата : 4 кадра
Идентификатор кодека : V_MPEG4/ISO/AVC
Продолжительность : 1 ч. 34 м.
Битрейт : 5746 Кбит/сек
Ширина : 1920 пикселей
Высота : 816 пикселей
Соотношение сторон : 2,35:1
Режим частоты кадров : Постоянный
Частота кадров : 23,976 (24000/1001) кадра/сек
Цветовое пространство : YUV
Субдискретизация насыщенности : 4:2:0
Битовая глубина : 8 бит
Тип развёртки : Прогрессивная
Бит/(Пиксели*Кадры) : 0.153
Размер потока : 3,80 Гбайт (90%)
Default : Да
Forced : Нет
Цветовой диапазон : Limited
Основные цвета : BT.709
Характеристики трансфера : BT.709
Коэффициенты матрицы : BT.709

Аудио #1
Идентификатор : 2
Формат : AC-3
Формат/Информация : Audio Coding 3
Расширение режима : CM (complete main)
Параметр Endianness формата : Big
Идентификатор кодека : A_AC3
Продолжительность : 1 ч. 34 м.
Вид битрейта : Постоянный
Битрейт : 192 Кбит/сек
Каналы : 2 канала
Расположение каналов : Front: L R
Частота : 48,0 КГц
Частота кадров : 31,250 кадров/сек (1536 spf)
Битовая глубина : 16 бит
Метод сжатия : С потерями
Размер потока : 130 Мбайт (3%)
Заголовок : MVO [HDRezka Studio]
Язык : Russian
Default : Да
Forced : Нет

Аудио #2
Идентификатор : 3
Формат : AC-3
Формат/Информация : Audio Coding 3
Расширение режима : CM (complete main)
Параметр Endianness формата : Big
Идентификатор кодека : A_AC3
Продолжительность : 1 ч. 34 м.
Вид битрейта : Постоянный
Битрейт : 448 Кбит/сек
Каналы : 6 каналов
Расположение каналов : Front: L C R, Side: L R, LFE
Частота : 48,0 КГц
Частота кадров : 31,250 кадров/сек (1536 spf)
Битовая глубина : 16 бит
Метод сжатия : С потерями
Размер потока : 303 Мбайт (7%)
Заголовок : [Original]
Язык : English
Default : Нет
Forced : Нет

Текст #1
Идентификатор : 4
Формат : UTF-8
Идентификатор кодека : S_TEXT/UTF8
Идентификатор кодека/Информация : UTF-8 Plain Text
Продолжительность : 1 ч. 31 м.
Битрейт : 32 бит/сек
Count of elements : 921
Размер потока : 21,7 Кбайт (0%)
Заголовок : Full
Язык : English
Default : Нет
Forced : Нет

Текст #2
Идентификатор : 5
Формат : UTF-8
Идентификатор кодека : S_TEXT/UTF8
Идентификатор кодека/Информация : UTF-8 Plain Text
Продолжительность : 1 ч. 32 м.
Битрейт : 38 бит/сек
Count of elements : 1155
Размер потока : 26,4 Кбайт (0%)
Заголовок : SDH
Язык : English
Default : Нет
Forced : Нет

pb.wtf



Скачать Фургон смерти через торрент http://i96.fastpic.ru/big/2018/1027/02/595380bdd04e65f0b6b8e07acfa7f202.jpg Скачать фильм Фургон смерти через торрент бесплантно в хорошем качестве Описание: Купив старый поддержанный трейлер, благополучная американская семья отправляется на уикенд в глубь стран смотреть пещерную ... 9.7 10 6
Торрент: Зарегистрирован [2018-10-27 12:10] · скачан: 93 раз
Статус: T временная
Размер: 4.22 GB
Как cкачать? Как скачать Фургон смерти через торрент | qTorrent

% Раздел Тема Автор DL S | L
Фильмы (Blu-ray, BD-Remux, HDDVD) [ 15.98 GB ] Фургон смерти / The Toybox [2018 BD Remux 1080p] 2xMVO [ТВ3 HDRezka Studio] bober100 Скачать
1 | 0
T Фильмы 2018 [DVDrip, WEB-DLRip, HDrip] (DUB, MVO) [ 1.63 GB ] Фургон смерти / The Toybox [2018 WEB-DLRip-AVC] MVO [HDRezka Studio] bober100 Скачать
1 | 0

28-11-2019 20:33  

Отключить всю рекламу на сайте

27-10-2018 13:19 Фургон смерти Скачать торрент  

Спасибо...еле досмотрел...уснул... pb.wtf



27-10-2018 14:56 Фургон смерти Скачать торрент  

"Узнав, что купленный фургон в свое время принадлежал серийному маньяку-убийце, оставшиеся в живых пытаются покинуть трейлер".
И вот так весь фильм,как я понимаю...Спасибо,качать не буду.pb.wtf



    Дорогой пользователь! Огромная просьба, поблагодарите релизера, оцените раздачу и оставьте свои комментарий, если Вы скачали Фургон смерти через торрент бесплатно! Внесите свою лепту в развитие PiratBit!
    Комментировать посты могут только пользователи прошедшие не сложную регистрацию
    Показать сообщения:    

    Фургон смерти через торрент
    Скачать бесплатно Фургон смерти
    Фургон смерти скачать торрент
    Фургон смерти смотреть онлайн
    Cкачать фильм Фургон смерти бесплатно
    Фургон смерти скачать торрент в хорошем качестве
    Фургон смерти смотреть онлайн бесплатно в хорошем качестве


    Вы не можете начинать темы
    Вы не можете отвечать на сообщения
    Вы не можете редактировать свои сообщения
    Вы не можете удалять свои сообщения
    Вы не можете голосовать в опросах
    Вы не можете прикреплять файлы к сообщениям
    Вы можете скачивать файлы