Ссылка на приватное зеркало нашего сайта всего за 1$. Внимание количество ограничено!!!

2 сезон

iTunes

iTunes

1

iTunes

iTunes

iTunes

WEBRip

iTunes

30
pack

Вам бонус

ВАЖНО

!!Акция!!

Alien_RageХит недели

RePack

Horizon Zero Dawn

ИГРА 18+

pack

RePack

jed

!!Акция!!

Alien_Rage

RePack

fifa19

RePack

Assassins Creed: Odyssey

RePack

NEED FOR SPEED™ PAYBACK

4 сезон

9 сезон

Бесстыжие 9 сезон

Все сериалы

все сериалы на PB.wtf

RePack

FAR CRY 5
  

Пятеро друзей и долина динозавров / Fünf Freunde und das Tal der Dinosaurier (Майк Марзук) [2018, Приключения, семейный, BDRip 720p] MVO ["Синема УС"] pb.wtf

Пятеро друзей и долина динозавров через торрент pb.wtf

Размер: 5.31 GB | Добавлен: 1 год 10 мес. назад | Торрент скачан:30 раз
Скачать  

27-10-2018 12:44 Пятеро друзей и долина динозавров Скачать торрент  

Пятеро друзей и долина динозавров / Fünf Freunde und das Tal der Dinosaurier Год выпуска: 2018
Страна: Германия
Жанр: Приключения, семейный
Продолжительность: 01:44:21
Перевод: Любительский (многоголосый) | "Синема УС"
Субтитры: отсутствуют

Режиссер: Майк Марзук

rating

В ролях:

Маринус Хохманн, Рон Антони Ренценбринк, Амели Ламмерс, Аллегра Тиннефельд, Якоб Маченц, Петер Прагер, Мелика Форутан, Дирк Борхардт, Юрген Таррах, Дагмар Заксе

Описание:

По пути на вечеринку, которая не обещала никакого веселья, "Знаменитая Пятерка" вздыхает облегченно, когда машина тети Фанни неожиданно ломается и им приходится остаться в маленьком городке. Чтобы скоротать время, они посещают местный музей естественной истории, где находятся недавно обнаруженные кости динозавра. Здесь они встречаются с Марти, который говорит им, что его давно умерший отец, предположительно нашел полный скелет динозавра и отметил на карте его местонахождение. Но, к сожалению, карта была украдена. Джордж, Джулиан, Дик, Энн и Тимми полны решимости отыскать это место, они присоединяются к экскурсии через Долину динозавров. Но их путешествие вскоре превращается в гонку по поиску динозавра, когда они начинают подозревать, что вор - это участник их группы.

Качество: BDRip 720p
Формат: AVI

Видео: h.264,6 836 kb/s, 1280x536
Аудио#1: Русский (AC3, 2 ch, 448 Кбит/с)
скриншот  скриншот  скриншот  

Общее
Уникальный идентификатор : 243173000124541548399449404420186847625 (0xB6F16A900E8FC0C983A90A227A163989)
Полное имя : E:\Fuenf.freunde.und.das.tal.der.dinosaurier.2018.P.BDRip.72Op_KOSHARA.mkv
Формат : Matroska
Версия формата : Version 2
Размер файла : 5,31 Гбайт
Продолжительность : 1 ч. 44 м.
Режим общего битрейта : Переменный
Общий поток : 7285 Кбит/сек
Дата кодирования : UTC 2018-10-26 18:54:20
Программа кодирования : mkvmerge v8.3.0 ('Over the Horizon') 64bit
Библиотека кодирования : libebml v1.3.1 + libmatroska v1.4.2

Видео
Идентификатор : 1
Формат : AVC
Формат/Информация : Advanced Video Codec
Профиль формата : High@L4.1
Настройки формата : CABAC / 4 Ref Frames
Параметр CABAC формата : Да
Параметр RefFrames формата : 4 кадра
Идентификатор кодека : V_MPEG4/ISO/AVC
Продолжительность : 1 ч. 44 м.
Вид битрейта : Переменный
Битрейт : 6836 Кбит/сек
Максимальный битрейт : 7500 Кбит/сек
Ширина : 1280 пикселей
Высота : 536 пикселей
Соотношение сторон : 2,40:1
Режим частоты кадров : Постоянный
Частота кадров : 23,976 (24000/1001) кадра/сек
Стандарт вещания : Component
Цветовое пространство : YUV
Субдискретизация насыщенности : 4:2:0
Битовая глубина : 8 бит
Тип развёртки : Прогрессивная
Бит/(Пиксели*Кадры) : 0.407
Размер потока : 4,88 Гбайт (92%)
Default : Да
Forced : Нет
Цветовой диапазон : Limited
Основные цвета : BT.709
Характеристики трансфера : BT.709
Коэффициенты матрицы : BT.709

Аудио
Идентификатор : 2
Формат : AC-3
Формат/Информация : Audio Coding 3
Идентификатор кодека : A_AC3
Продолжительность : 1 ч. 44 м.
Вид битрейта : Постоянный
Битрейт : 448 Кбит/сек
Каналы : 2 канала
Расположение каналов : Front: L R
Частота : 48,0 КГц
Частота кадров : 31,250 кадров/сек (1536 SPF)
Битовая глубина : 16 бит
Метод сжатия : С потерями
Размер потока : 334 Мбайт (6%)
ServiceKind/String : Complete Main
Default : Да
Forced : Нет

pb.wtf



Скачать Пятеро друзей и долина динозавров через торрент https://d.radikal.ru/d11/1810/a6/ab81329fa582.jpg Скачать фильм Пятеро друзей и долина динозавров через торрент бесплантно в хорошем качестве Описание: По пути на вечеринку, которая не обещала никакого веселья, "Знаменитая Пятерка" вздыхает облегченно, когда машина тети Фанни ... 10 10 2
Торрент: Зарегистрирован [2018-10-27 12:44] · скачан: 30 раз
Статус: # сомнительно
Размер: 5.31 GB
Как cкачать? Как скачать Пятеро друзей и долина динозавров через торрент | qTorrent

% Раздел Тема Автор DL S | L
T Фильмы (мультфильмы) cо спонсором показа (Новинки AVI/MKV) [ 1.37 GB ] Пятеро друзей и долина динозавров / Fünf Freunde und das Tal der Dinosaurier [2018 HDRip] MVO ["Синема УС"] bober100 Скачать
1 | 0

28-11-2019 20:33  

Отключить всю рекламу на сайте

    Дорогой пользователь! Огромная просьба, поблагодарите релизера, оцените раздачу и оставьте свои комментарий, если Вы скачали Пятеро друзей и долина динозавров через торрент бесплатно! Внесите свою лепту в развитие PiratBit!
    Комментировать посты могут только пользователи прошедшие не сложную регистрацию
    Показать сообщения:    

    Пятеро друзей и долина динозавров через торрент
    Скачать бесплатно Пятеро друзей и долина динозавров
    Пятеро друзей и долина динозавров скачать торрент
    Пятеро друзей и долина динозавров смотреть онлайн
    Cкачать фильм Пятеро друзей и долина динозавров бесплатно
    Пятеро друзей и долина динозавров скачать торрент в хорошем качестве
    Пятеро друзей и долина динозавров смотреть онлайн бесплатно в хорошем качестве


    Вы не можете начинать темы
    Вы не можете отвечать на сообщения
    Вы не можете редактировать свои сообщения
    Вы не можете удалять свои сообщения
    Вы не можете голосовать в опросах
    Вы не можете прикреплять файлы к сообщениям
    Вы можете скачивать файлы