Ссылка на приватное зеркало нашего сайта всего за 1$. Внимание количество ограничено!!!

2 сезон

iTunes

1 сезон

1

2 сезон

2 сезон

iTunes

1 сезон

RePack

30

Новинка

ВАЖНО

ИГРА 18+

pack

RePack

MK11
pack

Забери бонус

RePack

jed

!!Акция!!

Alien_Rage

RePack

fifa19

RePack

Assassins Creed: Odyssey

RePack

NEED FOR SPEED™ PAYBACK

4 сезон

9 сезон

Бесстыжие 9 сезон

Все сериалы

все сериалы на PB.wtf

RePack

FAR CRY 5
  

Побеждённые / I vinti (Микеланджело Антониони) [1953, драма, BDRip 1080p by msltel] VO pb.wtf

Побеждённые через торрент pb.wtf

Размер: 10.59 GB | Добавлен: 2 года 1 мес. назад | Торрент скачан:0 раз
Скачать  

27-10-2018 13:50 Побеждённые Скачать торрент  

Название: Побеждённые
Оригинальное название: I vinti
Год выпуска: 1953
Страна: Италия, Франция
Жанр: драма
Продолжительность: 01:53:29
Перевод: закадровый одноголосый

Режиссер: Микеланджело Антониони
В ролях: Франко Интерленги, Анна-Мария Ферреро, Эдуардо Чаннелли, Эви Мальтальяти, Умберто Спадаро, Питер Рейнольдс, Дэвид Фаррар, Патрик Барр, Фэй Комптон, Рэймонд Ловелл, Франсуаза Арнуль, Жан-Пьер Моки, Этшика Шуро, Анри Пуарье, Альбер Мишель, Эйлин Мур, Анни Ноэль, Жана Стюарт, Гастон Ренцелли, Дерек Тэнсли

О фильме: Фильм состоит из трёх частей, рассказывающих о событиях, связанных с тремя убийствами, произошедшими в Париже, Риме и Лондоне...



Качество: BDRip 1080p
Формат: MKV
Видео: MPEG-4 AVC, 11.7 Mбит/с, 1458x1080
Аудио 1: русский, AC3, 192 kbps, 2 ch, 48 kHz [закадровый одноголосый, Сибирский]
Аудио 2: итальянский, DTS, 1509 kbps, 2 ch, 48 kHz [оригинал]
Субтитры 1: русские
Субтитры 2: английские
Главы/чаптеры
Общее
Уникальный идентификатор : 228699014661151759286816680744101420615 (0xAC0DD3FBA8F55E83935BFFF5DC291E47)
Полное имя : D:\Video\Побеждённые.1953.BDRip 1080p by msltel.mkv
Формат : Matroska
Версия формата : Version 4
Размер файла : 10,6 Гбайт
Продолжительность : 1 ч. 53 м.
Общий поток : 13,4 Мбит/сек
Название фильма : Rip by msltel
Дата кодирования : UTC 2018-10-25 11:33:34
Программа кодирования : mkvmerge v8.2.0 ('World of Adventure') 64bit
Библиотека кодирования : libebml v1.3.1 + libmatroska v1.4.2

Видео
Идентификатор : 1
Формат : AVC
Формат/Информация : Advanced Video Codec
Профиль формата : High@L4.1
Настройки формата : CABAC / 4 Ref Frames
Параметр CABAC формата : Да
Параметр RefFrames формата : 4 кадра
Идентификатор кодека : V_MPEG4/ISO/AVC
Продолжительность : 1 ч. 53 м.
Битрейт : 11,7 Мбит/сек
Ширина : 1458 пикселей
Высота : 1080 пикселей
Соотношение сторон : 4:3
Режим частоты кадров : Постоянный
Частота кадров : 23,976 (24000/1001) кадра/сек
Цветовое пространство : YUV
Субдискретизация насыщенности : 4:2:0
Битовая глубина : 8 бит
Тип развёртки : Прогрессивная
Бит/(Пиксели*Кадры) : 0.309
Размер потока : 9,24 Гбайт (87%)
Библиотека кодирования : x264 core 155 r2901 7d0ff22
Настройки программы : cabac=1 / ref=4 / deblock=1:-3:-2 / analyse=0x3:0x113 / me=umh / subme=11 / psy=1 / psy_rd=1.00:0.15 / mixed_ref=1 / me_range=32 / chroma_me=1 / trellis=2 / 8x8dct=1 / cqm=0 / deadzone=21,11 / fast_pskip=0 / chroma_qp_offset=-3 / threads=6 / lookahead_threads=1 / sliced_threads=0 / nr=0 / decimate=1 / interlaced=0 / bluray_compat=0 / constrained_intra=0 / bframes=8 / b_pyramid=2 / b_adapt=2 / b_bias=0 / direct=1 / weightb=1 / open_gop=0 / weightp=2 / keyint=230 / keyint_min=23 / scenecut=40 / intra_refresh=0 / rc_lookahead=40 / rc=crf / mbtree=1 / crf=15.5 / qcomp=0.60 / qpmin=0 / qpmax=69 / qpstep=4 / vbv_maxrate=62500 / vbv_bufsize=78125 / crf_max=0.0 / nal_hrd=none / filler=0 / ip_ratio=1.40 / aq=1:1.00
Язык : Italian
Default : Да
Forced : Нет

Аудио #1
Идентификатор : 2
Формат : AC-3
Формат/Информация : Audio Coding 3
Коммерческое название : Dolby Digital
Идентификатор кодека : A_AC3
Продолжительность : 1 ч. 53 м.
Вид битрейта : Постоянный
Битрейт : 192 Кбит/сек
Каналы : 2 канала
Channel layout : L R
Частота : 48,0 КГц
Частота кадров : 31,250 кадров/сек (1536 SPF)
Битовая глубина : 16 бит
Метод сжатия : С потерями
Размер потока : 156 Мбайт (1%)
Заголовок : Сибирский
Язык : Russian
ServiceKind/String : Complete Main
Default : Да
Forced : Нет

Аудио #2
Идентификатор : 3
Формат : DTS
Формат/Информация : Digital Theater Systems
Идентификатор кодека : A_DTS
Продолжительность : 1 ч. 53 м.
Вид битрейта : Постоянный
Битрейт : 1509 Кбит/сек
Каналы : 2 канала
Channel layout : L R
Частота : 48,0 КГц
Частота кадров : 93,750 кадра/сек (512 SPF)
Битовая глубина : 16 бит
Метод сжатия : С потерями
Размер потока : 1,20 Гбайт (11%)
Заголовок : original
Язык : Italian
Default : Нет
Forced : Нет

Текст #1
Идентификатор : 4
Формат : UTF-8
Идентификатор кодека : S_TEXT/UTF8
Идентификатор кодека/Информация : UTF-8 Plain Text
Продолжительность : 1 ч. 52 м.
Битрейт : 105 бит/сек
ElementCount : 1259
Размер потока : 87,3 Кбайт (0%)
Заголовок : русские
Язык : Russian
Default : Нет
Forced : Нет

Текст #2
Идентификатор : 5
Формат : UTF-8
Идентификатор кодека : S_TEXT/UTF8
Идентификатор кодека/Информация : UTF-8 Plain Text
Продолжительность : 1 ч. 52 м.
Битрейт : 56 бит/сек
ElementCount : 1087
Размер потока : 46,9 Кбайт (0%)
Заголовок : английские
Язык : English
Default : Нет
Forced : Нет

Меню
00:00:00.000 : en:01. Opening Credits
00:02:02.581 : en:02. Prologue
00:04:54.419 : en:03. Simone
00:08:26.047 : en:04. Georges
00:11:16.259 : en:05. Pierre
00:20:04.036 : en:06. "Take Me Away"
00:31:20.295 : en:07. The Shooting
00:35:07.729 : en:08. The Escape
00:44:10.314 : en:09. Claudio
00:47:41.233 : en:10. Murder
00:54:42.696 : en:11. Wanted
01:02:23.239 : en:12. Marina
01:12:07.615 : en:13. "What Did They Do To You?"
01:15:28.566 : en:14. Daily Witness
01:18:46.221 : en:15. Hallan
01:30:24.836 : en:16. Sally
01:35:26.220 : en:17. "Perfect Murder"
01:41:09.605 : en:18. The Trial
01:44:10.536 : en:19. The Confession
01:50:47.558 : en:20. Epilogue
pb.wtf



Скачать Побеждённые через торрент https://a.radikal.ru/a43/1810/69/8f12b9524515.jpg Скачать фильм Побеждённые через торрент бесплантно в хорошем качестве О фильме: Фильм состоит из трёх частей, рассказывающих о событиях, связанных с тремя убийствами, произошедшими в Париже, Риме и Лондоне... ... 10 10 1
Info! Золотая раздача, скачанное не засчитывается.
Торрент: Зарегистрирован [2018-10-27 13:50] · скачан: 0 раз
Статус: √ проверено
Размер: 10.59 GB
Как cкачать? Как скачать Побеждённые через торрент | qTorrent

% Раздел Тема Автор DL S | L
Фильмы [HD 720p, 1080p] (Звук Cam, VO, DVO) [ 3.74 GB ] Побеждённые / I vinti [1953 BDRip 720p by msltel] VO msltel Скачать
1 | 0

28-11-2019 20:33  

Отключить всю рекламу на сайте

    Дорогой пользователь! Огромная просьба, поблагодарите релизера, оцените раздачу и оставьте свои комментарий, если Вы скачали Побеждённые через торрент бесплатно! Внесите свою лепту в развитие PiratBit!
    Комментировать посты могут только пользователи прошедшие не сложную регистрацию
    Показать сообщения:    

    Побеждённые через торрент
    Скачать бесплатно Побеждённые
    Побеждённые скачать торрент
    Побеждённые смотреть онлайн
    Cкачать фильм Побеждённые бесплатно
    Побеждённые скачать торрент в хорошем качестве
    Побеждённые смотреть онлайн бесплатно в хорошем качестве


    Вы не можете начинать темы
    Вы не можете отвечать на сообщения
    Вы не можете редактировать свои сообщения
    Вы не можете удалять свои сообщения
    Вы не можете голосовать в опросах
    Вы не можете прикреплять файлы к сообщениям
    Вы можете скачивать файлы