новый адрес
Ссылка на приватное зеркало всего за 1$. Внимание количество ограничено!!!

iTunes

1+1

iTunes

мы

WEB-DL

1

iTunes

Чернобыль

iTunes

Ральф против интернета

Лицензия

ПШазам

Лицензия

Оно 2

Лицензия

30
pack

Вам бонус

ВАЖНО

!!Акция!!

Alien_RageХит недели

RePack

Resident Evil 21

ИГРА 18+

pack

RePack

jed

!!Акция!!

Alien_Rage

RePack

fifa19

RePack

Assassins Creed: Odyssey

RePack

NEED FOR SPEED™ PAYBACK

3 сезон

9 сезон

Бесстыжие 9 сезон

Все сериалы

все сериалы на PB.wtf

RePack

FAR CRY 5
Ребята, катастрофически не хватает 1900р. для оплаты серверов за Октябрь (всвязи с блокировками трафик упал в 3 раза), 1-2р., выручайте.
  

Небоскрёб / Skyscraper (Роусон Маршалл Тёрбер) [2018, боевик, триллер, драма, криминал, BDRip-AVC] DUB [ Лицензия] pb.wtf

Небоскрёб через торрент pb.wtf

Раздают: 1 [ 0 KB/s ]
Размер: 1.45 GB | Добавлен: 1 год 1 мес. назад | Торрент скачан:519 раз
Скачать  

27-10-2018 16:32 Небоскрёб Скачать торрент  

Небоскрёб / Skyscraper
Год выпуска: 2018
Страна: США
Жанр: боевик, триллер, драма, криминал
Продолжительность: 01:42:24
Перевод: Дублированный | Лицензия
Субтитры: Русские (форс., полные), Английские (полные, SDH)

Режиссер: Роусон Маршалл Тёрбер

rating

В ролях:

Дуэйн Джонсон, Нив Кэмпбелл, Пабло Шрайбер, Ноа Тейлор, Кевин О. Ранкин, McKenna Roberts, Роланд Мюллер, Байрон Манн, Мэтью О Лири, Адриан Холмс

Описание:

Самый высокий и технологичный небоскрёб в мире становится центром огненной катастрофы. Только бывший агент ФБР, а теперь эксперт по безопасности Уилл Форд может спасти вертикальный город под небесами. Когда нельзя доверять никому, а жизнь семьи в опасности, каждая секунда на счету.

Качество: BDRip-AVC
Формат: MKV

Видео: 960x400 (2.40:1), 23,976 fps, x264 ~1 591 kbps avg, 0.173 bit/pixel
Аудио: 48 kHz, AC3 Dolby Digital, 3/2 (L,C,R,l,r) + LFE ch, ~448.00 kbps avg | RUS (Лицензия)
скриншот  скриншот  скриншот  скриншот  

Общее
Уникальный идентификатор : 101922307156826901442774399282041374706 (0x4CAD85B7C671E9B10F4B92B86E2CC7F2)
Полное имя : F:OlLanDGroupSkyscraper.2018.BDRip(AVC).OlLanDGroup.mkv
Формат : Matroska
Версия формата : Version 4 / Version 2
Размер файла : 1,45 Гбайт
Продолжительность : 1 ч. 42 м.
Общий поток : 2031 Кбит/сек
Название фильма : Skyscraper.2018 #TorpedoUK#
Дата кодирования : UTC 2018-10-27 15:04:57
Программа кодирования : mkvmerge v25.0.0 ('Prog Noir') 64-bit
Библиотека кодирования : libebml v1.3.6 + libmatroska v1.4.9
Обложка : Yes
Attachments : Cover - Skyscraper.png

Видео
Идентификатор : 1
Формат : AVC
Формат/Информация : Advanced Video Codec
Профиль формата : High@L4.1
Параметр CABAC формата : Да
Параметр ReFrames формата : 10 кадров
Идентификатор кодека : V_MPEG4/ISO/AVC
Продолжительность : 1 ч. 42 м.
Битрейт : 1591 Кбит/сек
Ширина : 960 пикселей
Высота : 400 пикселей
Соотношение сторон : 2,40:1
Режим частоты кадров : Постоянный
Частота кадров : 23,976 (24000/1001) кадра/сек
Цветовое пространство : YUV
Субдискретизация насыщенности : 4:2:0
Битовая глубина : 8 бит
Тип развёртки : Прогрессивная
Бит/(Пиксели*Кадры) : 0.173
Размер потока : 1,13 Гбайт (78%)
Библиотека кодирования : x264 core 146 r2538 121396c
Настройки программы : cabac=1 / ref=10 / deblock=1:-3:-3 / analyse=0x3:0x113 / me=umh / subme=11 / psy=1 / psy_rd=0.98:0.04 / mixed_ref=1 / me_range=48 / chroma_me=1 / trellis=2 / 8x8dct=1 / cqm=0 / deadzone=21,11 / fast_pskip=1 / chroma_qp_offset=-3 / threads=6 / lookahead_threads=1 / sliced_threads=0 / nr=0 / decimate=1 / interlaced=0 / bluray_compat=0 / constrained_intra=0 / bframes=10 / b_pyramid=2 / b_adapt=2 / b_bias=0 / direct=3 / weightb=1 / open_gop=0 / weightp=2 / keyint=240 / keyint_min=23 / scenecut=40 / intra_refresh=0 / rc_lookahead=40 / rc=2pass / mbtree=0 / bitrate=1591 / ratetol=1.0 / qcomp=0.60 / qpmin=0 / qpmax=69 / qpstep=4 / cplxblur=20.0 / qblur=0.5 / vbv_maxrate=50000 / vbv_bufsize=62500 / nal_hrd=none / filler=0 / ip_ratio=1.40 / pb_ratio=1.30 / aq=1:1.00
Default : Да
Forced : Нет

Аудио
Идентификатор : 2
Формат : AC-3
Формат/Информация : Audio Coding 3
Расширение режима : CM (complete main)
Параметр Endianness формата : Big
Идентификатор кодека : A_AC3
Продолжительность : 1 ч. 42 м.
Вид битрейта : Постоянный
Битрейт : 448 Кбит/сек
Каналы : 6 каналов
Расположение каналов : Front: L C R, Side: L R, LFE
Частота : 48,0 КГц
Частота кадров : 31,250 кадров/сек (1536 spf)
Битовая глубина : 16 бит
Метод сжатия : С потерями
Размер потока : 328 Мбайт (22%)
Заголовок : DUB [License]
Язык : Russian
Default : Да
Forced : Нет

Текст #1
Идентификатор : 3
Формат : UTF-8
Идентификатор кодека : S_TEXT/UTF8
Идентификатор кодека/Информация : UTF-8 Plain Text
Продолжительность : 1 ч. 26 м.
Битрейт : 2 бит/сек
Count of elements : 46
Размер потока : 1,88 Кбайт (0%)
Заголовок : Forced
Язык : Russian
Default : Да
Forced : Нет

Текст #2
Идентификатор : 4
Формат : UTF-8
Идентификатор кодека : S_TEXT/UTF8
Идентификатор кодека/Информация : UTF-8 Plain Text
Продолжительность : 1 ч. 33 м.
Битрейт : 74 бит/сек
Count of elements : 957
Размер потока : 51,3 Кбайт (0%)
Заголовок : Full
Язык : Russian
Default : Нет
Forced : Нет

Текст #3
Идентификатор : 5
Формат : UTF-8
Идентификатор кодека : S_TEXT/UTF8
Идентификатор кодека/Информация : UTF-8 Plain Text
Продолжительность : 1 ч. 32 м.
Битрейт : 43 бит/сек
Count of elements : 1021
Размер потока : 29,1 Кбайт (0%)
Заголовок : Full
Язык : English
Default : Нет
Forced : Нет

Текст #4
Идентификатор : 6
Формат : UTF-8
Идентификатор кодека : S_TEXT/UTF8
Идентификатор кодека/Информация : UTF-8 Plain Text
Продолжительность : 1 ч. 42 м.
Битрейт : 54 бит/сек
Count of elements : 1476
Размер потока : 40,6 Кбайт (0%)
Заголовок : SDH
Язык : English
Default : Нет
Forced : Нет

Меню
00:00:00.000 : en:Chapter 1
00:04:24.764 : en:Chapter 2
00:10:07.356 : en:Chapter 3
00:16:09.927 : en:Chapter 4
00:21:12.604 : en:Chapter 5
00:25:34.991 : en:Chapter 6
00:30:11.726 : en:Chapter 7
00:35:23.913 : en:Chapter 8
00:40:07.113 : en:Chapter 9
00:47:18.961 : en:Chapter 10
00:52:10.252 : en:Chapter 11
00:58:16.784 : en:Chapter 12
01:02:02.969 : en:Chapter 13
01:05:29.634 : en:Chapter 14
01:09:59.403 : en:Chapter 15
01:14:31.425 : en:Chapter 16
01:17:18.258 : en:Chapter 17
01:23:33.341 : en:Chapter 18
01:27:46.219 : en:Chapter 19
01:32:54.569 : en:Chapter 20
pb.wtf



Скачать Небоскрёб через торрент http://i95.fastpic.ru/big/2018/1027/bc/b46a733b5a8b452947a1736445bf81bc.jpg Скачать фильм Небоскрёб через торрент бесплантно в хорошем качестве Описание: Самый высокий и технологичный небоскрёб в мире становится центром огненной катастрофы. Только бывший агент ФБР, а теперь эксперт ... 9 10 10
Info! Золотая раздача, скачанное не засчитывается.
Торрент: Зарегистрирован [2018-10-27 16:32] · скачан: 519 раз
Статус: √ проверено
Размер: 1.45 GB
Как cкачать? Как скачать Небоскрёб через торрент | qTorrent

% Раздел Тема Автор DL S | L
Ultra HD (UHD: 2K, 4K, 8K) — видео сверхвысокой чёткости [ 57.99 GB ] Небоскрёб / Skyscraper [2018 UHD BDRemux 2160p] [Dolby Vision TV] DUB [] bober100 Скачать
2 | 0
Фильмы [HD 720p, 1080p] (Хороший звук DUB, MVO) [ 10.72 GB ] Небоскреб / Skyscraper [2018 BDRip 1080p] DUB sheker187 Скачать
2 | 0
Фильмы с авторской озвучкой [ 1.46 GB ] Небоскреб / Skyscraper [2018 BDRip] [AVO] killermax2013 Скачать
1 | 0
Ultra HD (UHD: 2K, 4K, 8K) — видео сверхвысокой чёткости [ 83.22 GB ] Небоскреб / Skyscraper [2018 UHD Blu-ray 2160p] DUB [] [HDR + Dolby Vision] sheker187 Скачать
1 | 0
Ultra HD (UHD: 2K, 4K, 8K) — видео сверхвысокой чёткости [ 52.45 GB ] Небоскреб / Skyscraper [2018 UHD BDRemux 2160p] DUB [] sheker187 Скачать
1 | 0
3D Фильмы [ 19.53 GB ] Небоскреб в 3Д / Skyscraper 3D [2018 BDRip 1080p] OverUnder / Вертикальная стереопара serega768 Скачать
1 | 0
Ultra HD (UHD: 2K, 4K, 8K) — видео сверхвысокой чёткости [ 26.48 GB ] Небоскреб / Skyscraper [2018 UHD BDRip 2160p] [SDR] DUB [] sheker187 Скачать
1 | 0

28-11-2019 20:33  

Отключить всю рекламу на сайте

16-11-2018 12:23 Небоскрёб Скачать торрент  

почему не качает (pb.wtf



    Дорогой пользователь! Огромная просьба, поблагодарите релизера, оцените раздачу и оставьте свои комментарий, если Вы скачали Небоскрёб через торрент бесплатно! Внесите свою лепту в развитие PiratBit!
    Комментировать посты могут только пользователи прошедшие не сложную регистрацию
    Показать сообщения:    

    Небоскрёб через торрент
    Скачать бесплатно Небоскрёб
    Небоскрёб скачать торрент
    Небоскрёб смотреть онлайн
    Cкачать фильм Небоскрёб бесплатно
    Небоскрёб скачать торрент в хорошем качестве
    Небоскрёб смотреть онлайн бесплатно в хорошем качестве


    Вы не можете начинать темы
    Вы не можете отвечать на сообщения
    Вы не можете редактировать свои сообщения
    Вы не можете удалять свои сообщения
    Вы не можете голосовать в опросах
    Вы не можете прикреплять файлы к сообщениям
    Вы можете скачивать файлы