Marvel's Avengers Deluxe Edition (супер цена) 159р. Внимание количество ограничено!!!

2 сезон

iTunes

iTunes

1

iTunes

iTunes

iTunes

WEBRip

iTunes

30
pack

Новость дня

ВАЖНО

!!Акция!!

Alien_RageХит недели

RePack

Horizon Zero Dawn

ИГРА 18+

pack

RePack

jed

!!Акция!!

Alien_Rage

RePack

fifa19

RePack

Assassins Creed: Odyssey

RePack

NEED FOR SPEED™ PAYBACK

4 сезон

9 сезон

Бесстыжие 9 сезон

Все сериалы

все сериалы на PB.wtf

RePack

FAR CRY 5
  

7 историй от Эфирии / 7 from Etheria (Хайди Ли Дуглас, Аранча Эчеваррия, Марта Годдар) [2017, ужасы, WEB-DL 720p] MVO [КОЛОБОК] pb.wtf

7 историй от Эфирии через торрент pb.wtf

Размер: 3.25 GB | Добавлен: 1 год 10 мес. назад | Торрент скачан:109 раз
Скачать  

27-10-2018 17:10 7 историй от Эфирии Скачать торрент  

7 историй от Эфирии / 7 from EtheriaГод выпуска: 2017
Страна: США
Жанр: ужасы
Продолжительность: 01:37:27
Перевод: Любительский (многоголосый) | КОЛОБОК
Субтитры: отсутствуют

Режиссер: Хайди Ли Дуглас, Аранча Эчеваррия, Марта Годдар

rating

В ролях:

Элизабет Дебики, Хавьер Годино, Дэвид Джеймс, Энн Рэмси, Неджарра Таунсенд, Лови Андервуд

Описание:

Эфирия - самая уважаемая в мире площадка для лучших новых фильмов ужасов, комедии, научной фантастики, фэнтези, боевика и триллера, созданных новыми женщинами-режиссерами.В этом фильм представлены семь короткометражных историй разного жанра.

Качество: WEB-DL 720p
Формат: MKV

Видео: h.264,4 395 Кбит/с, 1280x720
Аудио#1: Русский (AC3, 2 ch, 384 Кбит/с)
скриншот  скриншот  скриншот  

Общее
Уникальный идентификатор : 224592375959001726867658257291025400000 (0xA8F6EB10137AEF4FB39593747CCD40C0)
Полное имя : F:\7.From.Etheria.2O17.Pk.WEB-DL.72Op.mkv
Формат : Matroska
Версия формата : Version 2
Размер файла : 3,25 Гбайт
Продолжительность : 1 ч. 37 м.
Режим общего битрейта : Переменный
Общий поток : 4781 Кбит/сек
Дата кодирования : UTC 2018-10-27 11:19:38
Программа кодирования : mkvmerge v8.3.0 ('Over the Horizon') 64bit
Библиотека кодирования : libebml v1.3.1 + libmatroska v1.4.2

Видео
Идентификатор : 1
Формат : AVC
Формат/Информация : Advanced Video Codec
Профиль формата : High@L4.1
Настройки формата : CABAC / 4 Ref Frames
Параметр CABAC формата : Да
Параметр RefFrames формата : 4 кадра
Идентификатор кодека : V_MPEG4/ISO/AVC
Продолжительность : 1 ч. 37 м.
Вид битрейта : Переменный
Битрейт : 4395 Кбит/сек
Максимальный битрейт : 5000 Кбит/сек
Ширина : 1280 пикселей
Высота : 720 пикселей
Соотношение сторон : 16:9
Режим частоты кадров : Постоянный
Частота кадров : 23,976 (24000/1001) кадра/сек
Стандарт вещания : Component
Цветовое пространство : YUV
Субдискретизация насыщенности : 4:2:0
Битовая глубина : 8 бит
Тип развёртки : Прогрессивная
Бит/(Пиксели*Кадры) : 0.195
Размер потока : 2,93 Гбайт (90%)
Default : Да
Forced : Нет
Цветовой диапазон : Limited
Основные цвета : BT.709
Характеристики трансфера : BT.709
Коэффициенты матрицы : BT.709

Аудио
Идентификатор : 2
Формат : AC-3
Формат/Информация : Audio Coding 3
Идентификатор кодека : A_AC3
Продолжительность : 1 ч. 37 м.
Вид битрейта : Постоянный
Битрейт : 384 Кбит/сек
Каналы : 2 канала
Расположение каналов : Front: L R
Частота : 48,0 КГц
Частота кадров : 31,250 кадров/сек (1536 SPF)
Битовая глубина : 16 бит
Метод сжатия : С потерями
Размер потока : 268 Мбайт (8%)
ServiceKind/String : Complete Main
Default : Да
Forced : Нет

pb.wtf



Скачать 7 историй от Эфирии через торрент https://a.radikal.ru/a14/1810/dc/1880853e0853.jpg Скачать фильм 7 историй от Эфирии через торрент бесплантно в хорошем качестве Описание: Эфирия - самая уважаемая в мире площадка для лучших новых фильмов ужасов, комедии, научной фантастики, фэнтези, боевика и ... 10 10 4
Торрент: Зарегистрирован [2018-10-27 17:10] · скачан: 109 раз
Статус: T временная
Размер: 3.25 GB
Как cкачать? Как скачать 7 историй от Эфирии через торрент | qTorrent

% Раздел Тема Автор DL S | L
Фильмы (WEB-DL 720p, 1080p) [ 3.53 GB ] 7 историй от Эфирии / 7 from Etheria [2017 WEB-DL 1080p] MVO - ExKinoRay Enigma2010 Скачать
5 | 0
T Фильмы (мультфильмы) cо спонсором показа (Новинки AVI/MKV) [ 1.37 GB ] 7 историй от Эфирии / 7 from Etheria [2017 WEB-DLRip] MVO [КОЛОБОК] bober100 Скачать
1 | 0

28-11-2019 20:33  

Отключить всю рекламу на сайте

27-10-2018 18:53 7 историй от Эфирии Скачать торрент  

Кто нибудь смотрел сие произведение? Просто не хочу смотреть очередные выс...ы снятые упоротыми феменистками достаточно было случайно глянуть охотники за приведениями 2....до сих пор не могу развидеть))pb.wtf



27-10-2018 19:39 7 историй от Эфирии Скачать торрент  

kOLOBOK&k писал(а):

Кто нибудь смотрел сие произведение? Просто не хочу смотреть очередные выс...ы снятые упоротыми феменистками достаточно было случайно глянуть охотники за приведениями 2....до сих пор не могу развидеть))

С Охотниками 2 ты тут прав! Я думал я смотрю женскую порнографию!)pb.wtf





Последний раз редактировалось: Demon83666 (2018-10-29 10:21), всего редактировалось 1 раз

28-10-2018 02:49 7 историй от Эфирии Скачать торрент  

Рейтинг завышен ? Или фильм стоящий ?pb.wtf



29-10-2018 06:15 7 историй от Эфирии Скачать торрент  

еще та отсебятина.ненавижу такую псевдо-документальную чушню. pb.wtf



    Дорогой пользователь! Огромная просьба, поблагодарите релизера, оцените раздачу и оставьте свои комментарий, если Вы скачали 7 историй от Эфирии через торрент бесплатно! Внесите свою лепту в развитие PiratBit!
    Комментировать посты могут только пользователи прошедшие не сложную регистрацию
    Показать сообщения:    

    7 историй от Эфирии через торрент
    Скачать бесплатно 7 историй от Эфирии
    7 историй от Эфирии скачать торрент
    7 историй от Эфирии смотреть онлайн
    Cкачать фильм 7 историй от Эфирии бесплатно
    7 историй от Эфирии скачать торрент в хорошем качестве
    7 историй от Эфирии смотреть онлайн бесплатно в хорошем качестве


    Вы не можете начинать темы
    Вы не можете отвечать на сообщения
    Вы не можете редактировать свои сообщения
    Вы не можете удалять свои сообщения
    Вы не можете голосовать в опросах
    Вы не можете прикреплять файлы к сообщениям
    Вы можете скачивать файлы