Ссылка на приватное зеркало нашего сайта всего за 1$. Внимание количество ограничено!!!

2 сезон

iTunes

1 сезон

1

2 сезон

2 сезон

iTunes

1 сезон

RePack

30

Новинка

ВАЖНО

ИГРА 18+

pack

RePack

MK11
pack

Забери бонус

RePack

jed

!!Акция!!

Alien_Rage

RePack

fifa19

RePack

Assassins Creed: Odyssey

RePack

NEED FOR SPEED™ PAYBACK

4 сезон

9 сезон

Бесстыжие 9 сезон

Все сериалы

все сериалы на PB.wtf

RePack

FAR CRY 5
  

Наследие / Legacies / Сезон: 1 / Серии: 1-16 из 16 (Майкл А. Алловиц, Крис Грисмер, Пол Уэсли) [2018, Ужасы, фэнтези, драма, детектив, приключения, WEB-DLRip] MVO [Jaskier] pb.wtf

Наследие через торрент pb.wtf

Размер: 7.85 GB | Добавлен: 1 год 7 мес. назад | Торрент скачан:60 раз
Скачать  

27-10-2018 20:47 Наследие Скачать торрент  

Наследие / LegaciesГод выпуска: 2018
Страна: США
Жанр: Ужасы, фэнтези, драма, детектив, приключения
Продолжительность: ~ 00:43:00
Перевод: Профессиональный (многоголосый) | Jaskier
Субтитры: отсутствуют

Режиссер: Майкл А. Алловиц, Крис Грисмер, Пол Уэсли

rating

В ролях:

Даниэль Роуз Расселл, Мэттью Дэвис, Кайли Брайант, Дженни Бойд, Ария Шахгасеми, Пейтон «Алекс» Смит, Куинси Фаус, Арчи Фолтинович, Карен Дэвид, Кэти Гарфилд и др.

Описание:

Рассказ о следующем поколении сверхъестественных существ в Школе Сальваторе для молодых и одаренных. Дочь Клауса Майклсона, 17-летняя Хоуп Майклсон; Близнецы Аларика Зальцмана, Лиззи и Джози Зальцман, и другие молодые люди достигли совершеннолетия необычным способом, чтобы стать их лучшими личностями, несмотря на их худшие импульсы. Станут ли эти молодые ведьмы, вампиры и оборотни героями, которыми они хотят быть — или злодеями, которыми они родились?

Качество: WEB-DLRip
Формат: AVI

Видео: ~ 1400 kbps, 720x400, 23.976 fps
Аудио#1 Rus: mp3, 48 KHz, 2 ch, 128 kbps
Аудио#2 Eng: mp3, 48 KHz, 2 ch, 128 kbps
скриншот  скриншот  скриншот  

Общее
Полное имя : G:\Загрузки\Legacies.S01E01.WEB-DLRip.Rus.Eng.Jaskier.avi
Формат : AVI
Формат/Информация : Audio Video Interleave
Размер файла : 501 Мбайт
Продолжительность : 42 м. 25 с.
Общий поток : 1650 Кбит/сек
Программа кодирования : VirtualDubMod 1.5.10.3 | www.virtualdub-fr.org || (build 2550/release)
Библиотека кодирования : VirtualDubMod build 2550/release

Видео
Идентификатор : 0
Формат : MPEG-4 Visual
Профиль формата : Advanced Simple@L5
Настройки формата : BVOP1 / Custom Matrix
Параметр BVOP формата : 1
Параметр QPel формата : Нет
Параметр GMC формата : Без точки перехода
Параметр матрицы формата : Выборочная
Идентификатор кодека : XVID
Идентификатор кодека/Подсказка : XviD
Продолжительность : 42 м. 25 с.
Битрейт : 1380 Кбит/сек
Ширина : 720 пикселей
Высота : 400 пикселей
Соотношение сторон : 16:9
Частота кадров : 23,976 (24000/1001) кадра/сек
Частота кадров в оригинале : 23,976 (23976/1000) кадра/сек
Цветовое пространство : YUV
Субдискретизация насыщенности : 4:2:0
Битовая глубина : 8 бит
Тип развёртки : Прогрессивная
Метод сжатия : С потерями
Бит/(Пиксели*Кадры) : 0.200
Размер потока : 419 Мбайт (84%)
Библиотека кодирования : XviD 73

Аудио #1
Идентификатор : 1
Формат : MPEG Audio
Версия формата : Version 1
Профиль формата : Layer 3
Настройки формата : Joint stereo / MS Stereo
Идентификатор кодека : 55
Идентификатор кодека/Подсказка : MP3
Продолжительность : 42 м. 25 с.
Вид битрейта : Постоянный
Битрейт : 128 Кбит/сек
Каналы : 2 канала
Частота : 48,0 КГц
Метод сжатия : С потерями
Размер потока : 38,8 Мбайт (8%)
Выравнивание : Соединение по промежуткам
Продолжительность промежутка : 42 мс. (1,00 видеокадр)
Время предзагрузки промежутка : 504 мс.

Аудио #2
Идентификатор : 2
Формат : MPEG Audio
Версия формата : Version 1
Профиль формата : Layer 3
Настройки формата : Joint stereo / MS Stereo
Идентификатор кодека : 55
Идентификатор кодека/Подсказка : MP3
Продолжительность : 42 м. 25 с.
Вид битрейта : Постоянный
Битрейт : 128 Кбит/сек
Каналы : 2 канала
Частота : 48,0 КГц
Метод сжатия : С потерями
Размер потока : 38,8 Мбайт (8%)
Выравнивание : Соединение по промежуткам
Продолжительность промежутка : 42 мс. (1,00 видеокадр)
Время предзагрузки промежутка : 504 мс.

Когда раздача ведётся путём добавления новых серий, при каждом добавлении создётся новый торрент. Чтобы начать докачку новой серии, пользователям необходимо сделать следующее:
(1) остановить скачивание,
(2) удалить старый торрент у себя из клиента (старые серии удалять не надо),
(3) скачать новый торрент и запустить его у себя в клиенте вместо старого, при этом указать клиенту путь в старую папку, куда и должно происходить скачивание новых серий.
Ваш клиент при этом должен произвести хеширование (проверку) старой папки (если не производит сам - помогите ему сделать это), и будет докачивать только те серии, которых у вас ещё нет. Старые серии при этом не удаляются, а продолжают раздаваться!
Eсли вы уже удалили старые серии, то предотвратить повторную закачку старых серий можно, отжав галочку в соответсвующих местах при запуске нового торрента. По возможности, желательно не удалять старые серии как можно дольше, чтобы релизёр не столько продолжал раздавать старые серии, а смог сконцентрироваться на новых
pb.wtf



Скачать Наследие через торрент http://img11.lostpic.net/2018/10/27/fc0c3c0a5a3d5e2353868badae174ddd.png Скачать фильм Наследие через торрент бесплантно в хорошем качестве Описание: Рассказ о следующем поколении сверхъестественных существ в Школе Сальваторе для молодых и одаренных. Дочь Клауса Майклсона, ... 8.7 10 7
Торрент: Зарегистрирован [2019-03-31 19:10] · скачан: 60 раз
Статус: √ проверено
Размер: 7.85 GB
Как cкачать? Как скачать Наследие через торрент | qTorrent

% Раздел Тема Автор DL S | L
Зарубежные сериалы [ 23.54 GB ] Наследие / Legacies / Сезон: 2 / Серии: 1-16 из 16 [2019 WEB-DL 720p] MVO [TVShows] bober100 Скачать
1 | 0
Зарубежные сериалы [ 9.42 GB ] Наследие / Legacies / Сезон: 2 / Серии: 1-16 из 16 [2019 . WEB-DLRip] MVO [LostFilm] bober100 Скачать
1 | 0
Зарубежные сериалы [ 46.94 GB ] Наследие / Legacies / Сезон: 2 / Серии: 1-16 из 16 [2019 WEB-DL 1080p] MVO [TVShows] bober100 Скачать
1 | 0
Зарубежные сериалы [ 23.51 GB ] Наследие / Legacies / Сезон: 2 / Серия: 1-16 из 16 [2019 WEB-DL 720p] MVO [Lostfilm] bober100 Скачать
29 | 18
Зарубежные сериалы [ 11.3 GB ] Наследие / Legacies / Сезон: 1 / Серии: 1-16 из 16 [2018 WEB-DLRip] MVO [TVShows] bober100 Скачать
1 | 0
Зарубежные сериалы [ 20.69 GB ] Наследие / Legacies / Сезон: 1 / Серии: 1-12 из 16 [2018 WEBRip 1080p] MVO [NewStudio] bober100 Скачать
1 | 0
Зарубежные сериалы [ 9.43 GB ] Наследие / Legacies / Сезон: 1 / Серии: 1-16 из 16 [2018 . WEB-DLRip] MVO [LostFilm] bober100 Скачать
1 | 0

28-11-2019 20:33  

Отключить всю рекламу на сайте

    Дорогой пользователь! Огромная просьба, поблагодарите релизера, оцените раздачу и оставьте свои комментарий, если Вы скачали Наследие через торрент бесплатно! Внесите свою лепту в развитие PiratBit!
    Комментировать посты могут только пользователи прошедшие не сложную регистрацию
    Показать сообщения:    

    Наследие через торрент
    Скачать бесплатно Наследие
    Наследие скачать торрент
    Наследие смотреть онлайн
    Cкачать фильм Наследие бесплатно
    Наследие скачать торрент в хорошем качестве
    Наследие смотреть онлайн бесплатно в хорошем качестве


    Вы не можете начинать темы
    Вы не можете отвечать на сообщения
    Вы не можете редактировать свои сообщения
    Вы не можете удалять свои сообщения
    Вы не можете голосовать в опросах
    Вы не можете прикреплять файлы к сообщениям
    Вы можете скачивать файлы