1 сезон

3 сезон

iTunes

1

Line

MVO

iTunes

13

1 сезон

RePack

30

Deluxe

pack

Лицензия

ВАЖНО

ИГРА 18+

pack

RePack

MK11

RePack

jed

RePack

fifa19

RePack

RDR2

RePack

NEED FOR SPEED™ PAYBACK

4 сезон

9 сезон

Бесстыжие 9 сезон

Все сериалы

все сериалы на PB.wtf

RePack

FAR CRY 5

Anonymous, доброй ночи, мы катастрофически не успеваем собрать деньги на оплату серверов, помогите нам пожалуйста 5,10,15р., для нас важна любая помощь . В качестве благодарности мы отключим Вам всю рекламу на сайте (укажите свой ник в строку Ваше имя)!

×
  
Magnet ссылка

Ночь коротка, гуляй, девчонка / Yoru wa mijikashi aruke yo otome (Масааки Юаса) [2017 г., аниме, мультфильм, комедия, мелодрама, HDRip, Любительский (одноголосый) PiratVoice] pb.wtf

Ночь коротка, гуляй, девчонка через торрент pb.wtf

Размер: 748 MB | Добавлен: 2 года 9 мес. назад | Торрент скачан:7 раз
Скачать  

27-10-2018 21:31 Ночь коротка, гуляй, девчонка Скачать торрент  

Ночь коротка, гуляй, девчонка / Yoru wa mijikashi aruke yo otome
Год выпуска: 2017
Страна: Япония
Жанр: аниме, мультфильм, комедия, мелодрама,
Продолжительность: 01:32:27
Перевод: Любительский (одноголосый) Клерик PiratVoice

Режиссер: Масааки Юаса



В ролях: Гэн Хосино, Кана Ханадзава, Хироси Камия, Рюдзи Акияма, Кадзуя Накаи, Юко Каида, Хироюки Ёсино, Сэико Нийдзума, Дзюнъити Сувабэ, Аои Юки

Описание: Девушка гуляет по вечернему Киото, посещает то ярмарку подержанных книг, то ярмарку при университете. Влюблённый парень незаметно преследует её в поисках возможности «случайно встретиться». Вокруг этой пары разворачиваются странные события, когда в дело вмешиваются различные существа: Тэнгу из японского фольклора, Бог подержанных книг и подозрительный ростовщик на непонятном трехъярусном транспорте.

Качество: HDRip
Формат: AVI
Видео кодек: XviD
Аудио кодек: MP3
Видео: XVID 688x384 23.976fps 994 kb/s
Аудио#1: MP3 48000Hz stereo 128 kbps
Релиз от: PiratVoice
скриншот   скриншот   скриншот  

General
Format : AVI
Format/Info : Audio Video Interleave
File size : 748 MiB
Duration : 1 h 32 min
Overall bit rate : 1 131 kb/s
Writing application : VirtualDubMod 1.5.10.3 | www.virtualdub-fr.org || (build 2550/release)
Writing library : VirtualDub build 32842/release

Video
ID : 0
Format : MPEG-4 Visual
Format profile : Advanced Simple@L5
Format settings : BVOP2
Format settings, BVOP : 2
Format settings, QPel : No
Format settings, GMC : No warppoints
Format settings, Matrix : Default (H.263)
Muxing mode : Packed bitstream
Codec ID : XVID
Codec ID/Hint : XviD
Duration : 1 h 32 min
Bit rate : 994 kb/s
Width : 688 pixels
Height : 384 pixels
Display aspect ratio : 16:9
Frame rate : 23.976 (24000/1001) FPS
Original frame rate : 23.976 (23976/1000) FPS
Color space : YUV
Chroma subsampling : 4:2:0
Bit depth : 8 bits
Scan type : Progressive
Compression mode : Lossy
Bits/(Pixel*Frame) : 0.157
Stream size : 657 MiB (88%)
Writing library : XviD 1.2.1 (UTC 2008-12-04)

Audio
ID : 1
Format : MPEG Audio
Format version : Version 1
Format profile : Layer 3
Format settings : Joint stereo
Codec ID : 55
Codec ID/Hint : MP3
Duration : 1 h 32 min
Bit rate mode : Constant
Bit rate : 128 kb/s
Channel(s) : 2 channels
Sampling rate : 48.0 kHz
Frame rate : 41.667 FPS (1152 SPF)
Compression mode : Lossy
Stream size : 84.6 MiB (11%)
Alignment : Split accross interleaves
Interleave, duration : 42 ms (1.00 video frame)
Interleave, preload duratio : 500 ms
Writing library : LAME3.100


--> НАШ YOUTUBE КАНАЛ
--> МЫ ВКОНТАКТЕ
-- > PiratVoice. Обсуждение и помощь проекту.
pb.wtf



Скачать Ночь коротка, гуляй, девчонка через торрент https://st.kp.yandex.net/images/film_iphone/iphone360_1008458.jpg Скачать фильм Ночь коротка, гуляй, девчонка через торрент бесплантно в хорошем качестве Описание: Девушка гуляет по вечернему Киото, посещает то ярмарку подержанных книг, то ярмарку при университете. Влюблённый парень незаметно ... 10 10 3
Info! Золотая раздача, скачанное не засчитывается.
Торрент: Зарегистрирован [2018-10-27 21:31] · скачан: 7 раз
Статус: √ проверено
Размер: 748 MB
Как cкачать? Как скачать Ночь коротка, гуляй, девчонка через торрент | UTorrent

28-11-2019 20:33  

Отключить всю рекламу на сайте

01-11-2018 17:19 Ночь коротка, гуляй, девчонка Скачать торрент  

бррр, анимашная японская муть. ))pb.wtf



    Дорогой пользователь! Огромная просьба, поблагодарите релизера, оцените раздачу и оставьте свои комментарий, если Вы скачали Ночь коротка, гуляй, девчонка через торрент бесплатно! Внесите свою лепту в развитие PiratBit!
    Комментировать посты могут только пользователи прошедшие не сложную регистрацию
    Показать сообщения:    

    Ночь коротка, гуляй, девчонка через торрент
    Скачать бесплатно Ночь коротка, гуляй, девчонка
    Ночь коротка, гуляй, девчонка скачать торрент
    Ночь коротка, гуляй, девчонка смотреть онлайн
    Cкачать фильм Ночь коротка, гуляй, девчонка бесплатно
    Ночь коротка, гуляй, девчонка скачать торрент в хорошем качестве
    Ночь коротка, гуляй, девчонка смотреть онлайн бесплатно в хорошем качестве


    Вы не можете начинать темы
    Вы не можете отвечать на сообщения
    Вы не можете редактировать свои сообщения
    Вы не можете удалять свои сообщения
    Вы не можете голосовать в опросах
    Вы не можете прикреплять файлы к сообщениям
    Вы можете скачивать файлы