Всегда рабочее зеркало без VPN и Proxy просто перед .vidak.icu напиши любое слово или цифру, Пример http://gvns.vidak.icu

MVO

2 сезон

2 сезон

1

1 сезон

iTunes

2 сезон

13

1 сезон

Распродажа

pack

Рекомендуем

Пиратка

30

ВАЖНО

RePack

MK11

RePack

jed

RePack

fifa19

RePack

RDR2

RePack

NEED FOR SPEED™ PAYBACK

Кинопоиск HD

6 сезон

 Острые козырьки 6 сезон

Все сериалы

все сериалы на PB.wtf

RePack

FAR CRY 5

Anonymous, нам критически не хватает 5601 руб. на оплату серверов и переферии за Апрель, помоги нам пожалуйста, вся надежда только на тебя. В благодарность мы отключим тебе всю рекламу на сайте!

×
  
Magnet ссылка

Люди Икс: Первый класс / X-Men: First Class (Мэттью Вон) [2011 г., фантастика, боевик, приключения, BDRip 1080p, HEVC (10bit), Дубляж+AVO] pb.wtf

Люди Икс: Первый класс через торрент pb.wtf

Размер: 7.07 GB | Добавлен: 3 года 6 мес. назад | Торрент скачан:135 раз
Смотреть онлайн Люди Икс: Первый класс | Скачать    Ребята, помогите собрать деньги на оплату серверов!!!

28-10-2018 08:39 Люди Икс: Первый класс Скачать торрент  

Люди Икс: Первый класс / X-Men: First Class
Год выпуска: 2011
Страна: США, Великобритания
Жанр: фантастика, боевик, приключения
Продолжительность: 02:11:42
Перевод: Дубляж (Лицензия)
Субтитры: Русские (форсированные, полные), английские

Режиссер: Мэттью Вон

rating

В ролях: Джеймс МакЭвой, Майкл Фассбендер, Кевин Бейкон, Роуз Бирн

Описание: Фильм расскажет о том, как сформировались профессор Ксавьер и Магнито, о процессе основания школы профессора для детей-мутантов и, наконец, о том, что же произошло между двумя закадычными друзьями и почему они расстались.
Доп. информация: -
H.265/HEVC (High Efficiency Video Coding) - это новый стандарт кодирования видео.
- Стандарт H.265/HEVC является логическим продолжением стандарта
H.264/AVC (Advanced Video Coding), и характеризуется более эффективными
алгоритмами сжатия, а также поддержкой высокого разрешения вплоть до 8K UHD
(8192x4320). Первая версия стандарта H.265 была опубликована в начале 2013 года.
- Рипы в фомате HEVC поддерживается не всеми аппаратными проигрывателями.
- Для корректного воспроизведения может потребоваться обновление ПО.
- Владельцам несовместимого железа просьба не беспокоить,
есть альтернативные релизы.
Качество: BDRip 1080p
Формат: MKV
Видео кодек: H.265
Аудио кодек: AC3
Видео: 1920x816, ~6336 Kbps
Аудио#1: AC3, 6 ch, 448 Kbps - Дублированный
Аудио#2: AC3, 6 ch, 448 Kbps - AVO (Сербин)
Аудио#3: AC3, 6 ch, 448 Kbps - Английский
Релиз от: Cthulhu

Общее
Уникальный идентификатор : 194595846210593278883666123538294542139 (0x9265CBF64D9151537288B1440D3E8F3B)
Полное имя : F:\РАЗДАЧИ\X-Men. First Class (2011) BDRip 1080p [HEVC] 10Bit_Cthulhu.mkv
Формат : Matroska
Версия формата : Version 4 / Version 2
Размер файла : 7,07 Гбайт
Продолжительность : 2 ч. 11 м.
Общий поток : 7683 Кбит/сек
Название фильма : X-Men. First Class (2011)_rip_by_Cthulhu
Дата кодирования : UTC 2018-06-05 15:08:38
Программа кодирования : mkvmerge v21.0.0 ('Tardigrades Will Inherit The Earth') 64-bit
Библиотека кодирования : libebml v1.3.5 + libmatroska v1.4.8
Обложка : Yes
Attachments : cover.jpg

Видео
Идентификатор : 1
Формат : HEVC
Формат/Информация : High Efficiency Video Coding
Профиль формата : Main 10@L4.1@High
Идентификатор кодека : V_MPEGH/ISO/HEVC
Продолжительность : 2 ч. 11 м.
Битрейт : 6336 Кбит/сек
Ширина : 1920 пикселей
Высота : 816 пикселей
Соотношение сторон : 2,35:1
Режим частоты кадров : Постоянный
Частота кадров : 23,976 (24000/1001) кадра/сек
Цветовое пространство : YUV
Субдискретизация насыщенности : 4:2:0
Битовая глубина : 10 бит
Бит/(Пиксели*Кадры) : 0.169
Размер потока : 5,83 Гбайт (82%)
Библиотека кодирования : x265 2.7+340-aa9102400f24:[Windows][GCC 8.0.1][64 bit] 10bit
Настройки программы : cpuid=1049583 / frame-threads=4 / numa-pools=4 / wpp / no-pmode / no-pme / no-psnr / no-ssim / log-level=2 / input-csp=1 / input-res=1920x816 / interlace=0 / total-frames=189480 / level-idc=41 / high-tier=1 / uhd-bd=0 / ref=5 / no-allow-non-conformance / no-repeat-headers / annexb / no-aud / no-hrd / info / hash=0 / no-temporal-layers / open-gop / min-keyint=23 / keyint=240 / gop-lookahead=0 / bframes=8 / b-adapt=2 / b-pyramid / bframe-bias=0 / rc-lookahead=40 / lookahead-slices=4 / scenecut=40 / radl=0 / no-intra-refresh / ctu=64 / min-cu-size=8 / rect / amp / max-tu-size=32 / tu-inter-depth=3 / tu-intra-depth=3 / limit-tu=4 / rdoq-level=1 / dynamic-rd=0.00 / no-ssim-rd / signhide / no-tskip / nr-intra=0 / nr-inter=0 / no-constrained-intra / no-strong-intra-smoothing / max-merge=3 / limit-refs=2 / limit-modes / me=3 / subme=7 / merange=57 / temporal-mvp / weightp / weightb / no-analyze-src-pics / deblock=-3:-3 / no-sao / no-sao-non-deblock / rd=4 / no-early-skip / rskip / no-fast-intra / no-tskip-fast / no-cu-lossless / no-b-intra / no-splitrd-skip / rdpenalty=0 / psy-rd=2.00 / psy-rdoq=1.00 / no-rd-refine / no-lossless / cbqpoffs=0 / crqpoffs=0 / rc=crf / crf=18.0 / qcomp=0.60 / qpstep=4 / stats-write=0 / stats-read=0 / vbv-maxrate=50000 / vbv-bufsize=50000 / vbv-init=0.9 / crf-max=0.0 / crf-min=0.0 / ipratio=1.40 / pbratio=1.30 / aq-mode=1 / aq-strength=1.00 / cutree / zone-count=0 / no-strict-cbr / qg-size=32 / no-rc-grain / qpmax=69 / qpmin=0 / no-const-vbv / sar=1 / overscan=0 / videoformat=5 / range=0 / colorprim=1 / transfer=1 / colormatrix=1 / chromaloc=0 / display-window=0 / max-cll=0,0 / min-luma=0 / max-luma=1023 / log2-max-poc-lsb=8 / vui-timing-info / vui-hrd-info / slices=1 / no-opt-qp-pps / no-opt-ref-list-length-pps / no-multi-pass-opt-rps / scenecut-bias=0.05 / no-opt-cu-delta-qp / no-aq-motion / no-hdr / no-hdr-opt / no-dhdr10-opt / no-idr-recovery-sei / analysis-reuse-level=5 / scale-factor=0 / refine-intra=0 / refine-inter=0 / refine-mv=0 / no-limit-sao / ctu-info=0 / no-lowpass-dct / refine-mv-type=0 / copy-pic=1 / max-ausize-factor=1.0 / no-dynamic-refine / no-single-sei
Язык : English
Default : Да
Forced : Нет
Цветовой диапазон : Limited
Основные цвета : BT.709
Характеристики трансфера : BT.709
Коэффициенты матрицы : BT.709

Аудио #1
Идентификатор : 2
Формат : AC-3
Формат/Информация : Audio Coding 3
Идентификатор кодека : A_AC3
Продолжительность : 2 ч. 11 м.
Вид битрейта : Постоянный
Битрейт : 448 Кбит/сек
Каналы : 6 каналов
Расположение каналов : Front: L C R, Side: L R, LFE
Частота : 48,0 КГц
Частота кадров : 31,250 кадров/сек (1536 SPF)
Битовая глубина : 16 бит
Метод сжатия : С потерями
Размер потока : 422 Мбайт (6%)
Заголовок : DUB
Язык : Russian
ServiceKind/String : Complete Main
Default : Да
Forced : Нет

Аудио #2
Идентификатор : 3
Формат : AC-3
Формат/Информация : Audio Coding 3
Идентификатор кодека : A_AC3
Продолжительность : 2 ч. 11 м.
Вид битрейта : Постоянный
Битрейт : 448 Кбит/сек
Каналы : 6 каналов
Расположение каналов : Front: L C R, Side: L R, LFE
Частота : 48,0 КГц
Частота кадров : 31,250 кадров/сек (1536 SPF)
Битовая глубина : 16 бит
Метод сжатия : С потерями
Размер потока : 422 Мбайт (6%)
Заголовок : AVO Сербин
Язык : Russian
ServiceKind/String : Complete Main
Default : Нет
Forced : Нет

Аудио #3
Идентификатор : 4
Формат : AC-3
Формат/Информация : Audio Coding 3
Идентификатор кодека : A_AC3
Продолжительность : 2 ч. 11 м.
Вид битрейта : Постоянный
Битрейт : 448 Кбит/сек
Каналы : 6 каналов
Расположение каналов : Front: L C R, Side: L R, LFE
Частота : 48,0 КГц
Частота кадров : 31,250 кадров/сек (1536 SPF)
Битовая глубина : 16 бит
Метод сжатия : С потерями
Размер потока : 422 Мбайт (6%)
Язык : English
ServiceKind/String : Complete Main
Default : Нет
Forced : Нет

Текст #1
Идентификатор : 5
Формат : UTF-8
Идентификатор кодека : S_TEXT/UTF8
Идентификатор кодека/Информация : UTF-8 Plain Text
Продолжительность : 1 ч. 32 м.
Битрейт : 6 бит/сек
ElementCount : 115
Размер потока : 4,58 Кбайт (0%)
Заголовок : rus forced
Язык : Russian
Default : Нет
Forced : Нет

Текст #2
Идентификатор : 6
Формат : UTF-8
Идентификатор кодека : S_TEXT/UTF8
Идентификатор кодека/Информация : UTF-8 Plain Text
Продолжительность : 2 ч. 3 м.
Битрейт : 74 бит/сек
ElementCount : 1419
Размер потока : 67,5 Кбайт (0%)
Заголовок : rus full
Язык : Russian
Default : Нет
Forced : Нет

Текст #3
Идентификатор : 7
Формат : UTF-8
Идентификатор кодека : S_TEXT/UTF8
Идентификатор кодека/Информация : UTF-8 Plain Text
Продолжительность : 2 ч. 2 м.
Битрейт : 51 бит/сек
ElementCount : 1410
Размер потока : 46,1 Кбайт (0%)
Язык : English
Default : Нет
Forced : Нет

Меню
00:00:00.000 : en:00:00:00.000
00:04:21.553 : en:00:04:21.553
00:09:33.156 : en:00:09:33.156
00:14:03.426 : en:00:14:03.426
00:16:08.176 : en:00:16:08.176
00:22:10.829 : en:00:22:10.829
00:27:11.046 : en:00:27:11.046
00:28:46.350 : en:00:28:46.350
00:31:32.891 : en:00:31:32.891
00:36:07.540 : en:00:36:07.540
00:40:12.660 : en:00:40:12.660
00:44:16.487 : en:00:44:16.487
00:50:05.753 : en:00:50:05.753
00:54:00.863 : en:00:54:00.863
01:01:07.414 : en:01:01:07.414
01:08:17.927 : en:01:08:17.927
01:11:51.098 : en:01:11:51.098
01:14:06.525 : en:01:14:06.525
01:20:07.052 : en:01:20:07.052
01:23:43.226 : en:01:23:43.226
01:27:35.834 : en:01:27:35.834
01:28:51.243 : en:01:28:51.243
01:31:24.979 : en:01:31:24.979
01:33:33.900 : en:01:33:33.900
01:37:54.410 : en:01:37:54.410
01:39:55.197 : en:01:39:55.197
01:43:37.962 : en:01:43:37.962
01:47:44.166 : en:01:47:44.166
01:52:38.460 : en:01:52:38.460
01:56:44.623 : en:01:56:44.623
02:01:26.696 : en:02:01:26.696
02:04:24.248 : en:02:04:24.248

pb.wtf



Скачать Люди Икс: Первый класс через торрент https://d.radikal.ru/d30/1810/26/4fb197549084.jpg Скачать, смотреть онлайн Люди Икс: Первый класс бесплантно в хорошем качестве Описание: Фильм расскажет о том, как сформировались профессор Ксавьер и Магнито, о процессе основания школы профессора для детей-мутантов ... 9.8 10 5
Торрент: Зарегистрирован [2018-10-28 08:39] · скачан: 135 раз
Статус: √ проверено
Размер: 7.07 GB
Как cкачать? Как скачать Люди Икс: Первый класс через торрент | UTorrent

28-11-2019 20:33  

Отключить всю рекламу на сайте

    Дорогой пользователь! Огромная просьба, поблагодарите релизера, оцените раздачу и оставьте свои комментарий, если Вы скачали Люди Икс: Первый класс через торрент бесплатно!
    Комментировать посты могут только пользователи прошедшие не сложную регистрацию
    Показать сообщения:    

    Люди Икс: Первый класс через торрент
    Скачать бесплатно Люди Икс: Первый класс
    Люди Икс: Первый класс скачать торрент
    Люди Икс: Первый класс смотреть онлайн
    Cкачать фильм Люди Икс: Первый класс бесплатно
    Люди Икс: Первый класс скачать торрент в хорошем качестве
    Люди Икс: Первый класс смотреть онлайн бесплатно в хорошем качестве


    Вы не можете начинать темы
    Вы не можете отвечать на сообщения
    Вы не можете редактировать свои сообщения
    Вы не можете удалять свои сообщения
    Вы не можете голосовать в опросах
    Вы не можете прикреплять файлы к сообщениям
    Вы можете скачивать файлы