новый адрес
Мега распродажа FORZA HORIZON 4 ULTIMATE+ВСЕ DLC+ОНЛАЙН всего за 499р. 349 руб. (супер цена). Внимание количество ограничено!!!

iTunes

1+1

iTunes

мы

iTunes

1

iTunes

Чернобыль

iTunes

Ральф против интернета

Лицензия

ПШазам

Лицензия

Игра престолов

Лицензия

30
pack

ВАЖНО

!!Акция!!

Alien_RageХит недели

RePack

Resident Evil 21

ИГРА 18+

pack

RePack

Metro:Exodus

!!Акция!!

Alien_Rage

RePack

fifa19

RePack

Assassins Creed: Odyssey

RePack

NEED FOR SPEED™ PAYBACK

3 сезон

9 сезон

Бесстыжие 9 сезон

Все сериалы

все сериалы на PB.wtf

RePack

FAR CRY 5
Ребята, катастрофически не хватает 1900р. для оплаты серверов за Октябрь (всвязи с блокировками трафик упал в 3 раза), 1-2р., выручайте.
  

Самые первые (Анатолий Граник) [1961, СССР, драма, SATRip-AVC от AVP Studio] pb.wtf

Самые первые через торрент pb.wtf

Размер: 1.09 GB | Добавлен: 1 год назад | Торрент скачан:8 раз
Скачать  

28-10-2018 09:46 Самые первые Скачать торрент  

Самые первые
Страна: СССР
Производство: Ленфильм

Жанр: драма
Год выпуска: 1961
Продолжительность: 01:36:48

Перевод: Не требуется
Cубтитры: нет
Оригинальная аудиодорожка: русский

Режиссер: Анатолий Граник

В ролях:
Игорь Пушкарёв, Нина Дробышева, Павел Махотин, Людмила Шагалова, Владимир Честноков, Владимир Самойлов, Олег Жаков, Александр Стрельников, Павел Кашлаков, Станислав Фесюнов, Виктор Терехов, Лев Бриллиантов...
Об актёрах подробней

Описание:
После испытательного полета летчика Сергея Сазонова (Игорь Пушкарёв) приглашают в группу космонавтов. Начинается интенсивная подготовка к полету в космос: занятия в камере невесомости, постоянная учеба. Сергей решает, что не имеет права встречаться с веселой студенткой Наташей, которую его друзья обвиняют в легкомыслии. Но их телефонный разговор заканчивается тем, что он просит ее выйти за него замуж.

Исходник: DVB
Качество видео: SATRip-AVC
Формат видео: MKV

Видео: 672->748x562 (4:3), 25,000 кадров/сек, H264 ~ 1416 kbps avg, 0.149 bit/pixel
Аудио: 48 kHz, Dolby Digital AC3 2.0, 192 kbps

Раздача от:
Общее
Полное имя : Samye.pervye.1961.SATRip-AVC_[New-team]_by_AVP_Studio.mkv
Формат : Matroska
Версия формата : Version 2
Размер файла : 1,09 Гбайт
Продолжительность : 1 ч. 36 м.
Общий поток : 1610 Кбит/сек
Дата кодирования : UTC 2018-10-25 18:27:46
Программа кодирования : mkvmerge v6.1.0 ('Old Devil') built on Mar 4 2013 09:10:42
Библиотека кодирования : libebml v1.3.0 + libmatroska v1.4.0

Видео
Идентификатор : 1
Формат : AVC
Формат/Информация : Advanced Video Codec
Профиль формата : High@L4.1
Настройки формата : CABAC / 10 Ref Frames
Параметр CABAC формата : Да
Параметр RefFrames формата : 10 кадров
Идентификатор кодека : V_MPEG4/ISO/AVC
Продолжительность : 1 ч. 36 м.
Битрейт : 1416 Кбит/сек
Ширина : 676 пикселей
Высота : 562 пикселя
Соотношение сторон : 4:3
Режим частоты кадров : Постоянный
Частота кадров : 25,000 кадров/сек
Цветовое пространство : YUV
Субдискретизация насыщенности : 4:2:0
Битовая глубина : 8 бит
Тип развёртки : Прогрессивная
Бит/(Пиксели*Кадры) : 0.149
Размер потока : 959 Мбайт (86%)
Библиотека кодирования : x264 core 157 r2932 303c484
Настройки программы : cabac=1 / ref=10 / deblock=1:-2:-1 / analyse=0x3:0x113 / me=umh / subme=10 / psy=1 / psy_rd=1.00:0.00 / mixed_ref=1 / me_range=32 / chroma_me=1 / trellis=2 / 8x8dct=1 / cqm=0 / deadzone=21,11 / fast_pskip=1 / chroma_qp_offset=-2 / threads=6 / lookahead_threads=1 / sliced_threads=0 / nr=0 / decimate=0 / interlaced=0 / bluray_compat=0 / constrained_intra=0 / bframes=8 / b_pyramid=2 / b_adapt=2 / b_bias=0 / direct=3 / weightb=1 / open_gop=0 / weightp=2 / keyint=250 / keyint_min=25 / scenecut=40 / intra_refresh=0 / rc=2pass / mbtree=0 / bitrate=1416 / ratetol=1.0 / qcomp=0.60 / qpmin=0 / qpmax=69 / qpstep=4 / cplxblur=20.0 / qblur=0.5 / ip_ratio=1.40 / pb_ratio=1.30 / aq=1:1.00
Default : Да
Forced : Нет

Аудио
Идентификатор : 2
Формат : AC-3
Формат/Информация : Audio Coding 3
Коммерческое название : Dolby Digital
Идентификатор кодека : A_AC3
Продолжительность : 1 ч. 36 м.
Вид битрейта : Постоянный
Битрейт : 192 Кбит/сек
Каналы : 2 канала
Channel layout : L R
Частота : 48,0 КГц
Частота кадров : 31,250 кадров/сек (1536 SPF)
Битовая глубина : 16 бит
Метод сжатия : С потерями
Размер потока : 133 Мбайт (12%)
Default : Да
Forced : Нет
pb.wtf



Скачать Самые первые через торрент http://picplus.ru/img/1810/28/cac3c1e3.png Скачать фильм Самые первые через торрент бесплантно в хорошем качестве Описание:После испытательного полета летчика Сергея Сазонова (Игорь Пушкарёв) приглашают в группу космонавтов. Начинается интенсивная ... 5 10 1
Info! Золотая раздача, скачанное не засчитывается.
Торрент: Зарегистрирован [2018-10-28 09:46] · скачан: 8 раз
Статус: √ проверено
Размер: 1.09 GB
Как cкачать? Как скачать Самые первые через торрент | qTorrent

% Раздел Тема Автор DL S | L
Русские порно ролики [ 1.26 GB ] Мой первый кастинг и мои самые легкие деньги [2019 All sex Oral SiteRip 1080p] Скорпион1976 Скачать
5 | 1
Гонзо [ 1.64 GB ] Моя Самая Первая Сцена 4 / My Very First Scene 4 [2019 All Sex Oral Gonzo Legal Teen Facial Couples Amateur Auditions WEB-DLRip] sheker187 Скачать
1 | 0
Документальные фильмы и телепередачи [ 696 MB ] На самом деле. Шурыгина впервые встречается с Семеновым [эфир от 21.01] [2019Ток-шоу SATRip] Armstrong Скачать
1 | 0
Кино СССР [ 1.09 GB ] Самые первые [1961 СССР SATRip от AVP Studio] AVP Studio Скачать
1 | 0
Гонзо [ 1.91 GB ] Моя Самая Первая Сцена 2 / My Very First Scene 2 [2018 All Sex Oral Gonzo Legal Teen Facial Couples Amateur Auditions First Boy/Girl WEB-DL 480p] Split Scenes sheker187 Скачать
1 | 0
National Geographic [ 2.18 GB ] Первая тройка самых опасных животных. Маленькие убийцы / World's deadliest. Little killers [2013 Документальный научно-популярный фауна флора HDTVRip 1080p ] Armstrong Скачать
1 | 0
Фантастика [ 298 MB ] Михаил Светлый - Самый первый [Олег Кейнз 2017 56 kbps MP3] bober100 Скачать
1 | 0


>> Регистрируемся здесь <<






Отзывы и комментарии о схеме читаем и пишем здесь: ---> Отзывы и комментарии о схеме

Новые благодарочки в телеграм довольных пользователей:
скриншот   скриншот   скриншот   скриншот   скриншот
    Дорогой пользователь! Огромная просьба, поблагодарите релизера, оцените раздачу и оставьте свои комментарий, если Вы скачали Самые первые через торрент бесплатно! Внесите свою лепту в развитие PiratBit!
    Комментировать посты могут только пользователи прошедшие не сложную регистрацию
    Показать сообщения:    

    Самые первые через торрент
    Скачать бесплатно Самые первые
    Самые первые скачать торрент
    Самые первые смотреть онлайн
    Cкачать фильм Самые первые бесплатно
    Самые первые скачать торрент в хорошем качестве
    Самые первые смотреть онлайн бесплатно в хорошем качестве


    Вы не можете начинать темы
    Вы не можете отвечать на сообщения
    Вы не можете редактировать свои сообщения
    Вы не можете удалять свои сообщения
    Вы не можете голосовать в опросах
    Вы не можете прикреплять файлы к сообщениям
    Вы можете скачивать файлы