2 сезон

iTunes

MVO

1

2 сезон

iTunes

iTunes

1 сезон

RePack

30

Ultimate

ВАЖНО

ИГРА 18+

pack

RePack

MK11
pack

Легкие деньги

RePack

jed

RePack

fifa19

RePack

RDR2

RePack

NEED FOR SPEED™ PAYBACK

4 сезон

9 сезон

Бесстыжие 9 сезон

Все сериалы

все сериалы на PB.wtf

RePack

FAR CRY 5

Anonymous, доброй ночи, мы не успеваем собрать деньги на оплату серверов за декабрь и январь, помогите нам пожалуйста в это трудное время. В качестве благодарности мы отключим Вам всю рекламу на сайте (укажите свой ник в строку Ваше имя)!

×
  
Magnet ссылка

Одичавшие / Feral (Марк Янг) [2017, Ужасы, триллер, BDRip] MVO [Jaskier] pb.wtf

Одичавшие через торрент pb.wtf

Размер: 2.05 GB | Добавлен: 2 года 2 мес. назад | Торрент скачан:152 раза
Скачать  

29-10-2018 08:43 Одичавшие Скачать торрент  

Одичавшие / Feral Год выпуска: 2017
Страна: США
Жанр: Ужасы, триллер
Продолжительность: 01:31:40
Перевод: Профессиональный (многоголосый) | Jaskier
Субтитры: отсутствуют

Режиссер: Марк Янг

rating скриншот  

В ролях:

Скаут Тэйлор-Комптон (Alice), Оливия Луккарди (Jules), Лью Темпл (Talbot), Рени Олстэд (Brienne), Брок Келли (Jesse), Ландри Олбрайт (Gina), Джордж Финн (Matt), Samantha Gangal (Young Alice), Марк Мусаси (Creature Performer), Laura Weltha (Creature Performer)
Описание:

На шестерых студентов-медиков, отправившихся на уик-энд в лес, нападает некое существо. Один за другим друзья заражаются «звериной болезнью», превращаясь в бешеных кровожадных существ, и запланированный отдых оборачивается кошмаром.

Качество: BDRip
Формат: AVI

Видео: XviD, 720x304, 23.976 fps, 2418 kbps
Аудио#1: Russian: AC3, 384 kb/s (6 ch)
Аудио#2: English: AC3, 384 kb/s (6 ch)
скриншот  скриншот  скриншот  скриншот  

Общее
Полное имя : D:ЗаготовкиЗАГОТОВКИ-ФИЛЬМЫFeral.2017.BDRip.Jaskier.avi
Формат : AVI
Формат/Информация : Audio Video Interleave
Размер файла : 2,05 Гбайт
Продолжительность : 1 ч. 31 м.
Общий поток : 3200 Кбит/сек
Программа кодирования : VirtualDubMod 1.5.10.3 | www.virtualdub-fr.org || (build 2550/release)
Библиотека кодирования : VirtualDubMod build 2550/release

Видео
Идентификатор : 0
Формат : MPEG-4 Visual
Профиль формата : Advanced Simple@L5
Настройки формата : BVOP1 / Custom Matrix
Параметр BVOP формата : 1
Параметр QPel формата : Нет
Параметр GMC формата : Без точки перехода
Параметр матрицы формата : Выборочная
Идентификатор кодека : XVID
Идентификатор кодека/Подсказка : XviD
Продолжительность : 1 ч. 31 м.
Битрейт : 2418 Кбит/сек
Ширина : 720 пикселей
Высота : 304 пикселя
Соотношение сторон : 2,35:1
Частота кадров : 23,976 (24000/1001) кадра/сек
Частота кадров в оригинале : 23,976 (23976/1000) кадра/сек
Цветовое пространство : YUV
Субдискретизация насыщенности : 4:2:0
Битовая глубина : 8 бит
Тип развёртки : Прогрессивная
Метод сжатия : С потерями
Бит/(Пиксели*Кадры) : 0.461
Размер потока : 1,55 Гбайт (76%)
Библиотека кодирования : XviD 73

Аудио #1
Идентификатор : 1
Формат : AC-3
Формат/Информация : Audio Coding 3
Коммерческое название : Dolby Digital
Идентификатор кодека : 2000
Продолжительность : 1 ч. 31 м.
Вид битрейта : Постоянный
Битрейт : 384 Кбит/сек
Каналы : 6 каналов
Channel layout : L R C LFE Ls Rs
Частота : 48,0 КГц
Частота кадров : 31,250 кадров/сек (1536 SPF)
Битовая глубина : 16 бит
Метод сжатия : С потерями
Размер потока : 252 Мбайт (12%)
Выравнивание : Разделение по промежуткам
Продолжительность промежутка : 42 мс. (1,00 видеокадр)
Время предзагрузки промежутка : 500 мс.

Аудио #2
Идентификатор : 2
Формат : AC-3
Формат/Информация : Audio Coding 3
Коммерческое название : Dolby Digital
Идентификатор кодека : 2000
Продолжительность : 1 ч. 31 м.
Вид битрейта : Постоянный
Битрейт : 384 Кбит/сек
Каналы : 6 каналов
Channel layout : L R C LFE Ls Rs
Частота : 48,0 КГц
Частота кадров : 31,250 кадров/сек (1536 SPF)
Битовая глубина : 16 бит
Метод сжатия : С потерями
Размер потока : 252 Мбайт (12%)
Выравнивание : Разделение по промежуткам
Продолжительность промежутка : 42 мс. (1,00 видеокадр)
Время предзагрузки промежутка : 500 мс.

pb.wtf



Скачать Одичавшие через торрент http://img11.lostpic.net/2018/09/02/97c2b12384942bc5708e0c04cb9bd6b9.png Скачать фильм Одичавшие через торрент бесплантно в хорошем качестве Описание: На шестерых студентов-медиков, отправившихся на уик-энд в лес, нападает некое существо. Один за другим друзья заражаются ... 10 10 5
Торрент: Зарегистрирован [2018-10-29 08:43] · скачан: 152 раз
Статус: √ проверено
Размер: 2.05 GB
Как cкачать? Как скачать Одичавшие через торрент | UTorrent

% Раздел Тема Автор DL S | L
Фильмы [HD 720p, 1080p] (Хороший звук DUB, MVO) [ 5.64 GB ] Одичавшие / Feral [2017 BDRip 720p] MVO [Jaskier] bober100 Скачать
1 | 0
Фильмы [HD 720p, 1080p] (Хороший звук DUB, MVO) [ 9.14 GB ] Одичавшие / Feral [2017 BDRip 1080p] MVO [Jaskier] bober100 Скачать
1 | 0
T Фильмы 2017 [DVDrip, WEB-DLRip, HDrip] (DUB, MVO) [ 1.37 GB ] Одичавшие / Feral [2017 WEB-DLRip] MVO [HDrezka Studio] -Lexx- Скачать
1 | 0
T Фильмы (WEB-DL 720p, 1080p) [ 3.42 GB ] Одичавшие / Feral [2017 WEB-DL 1080p] MVO [HDrezka Studio] -Lexx- Скачать
1 | 0
Порно фильмы с сюжетом [ 1.91 GB ] Одичавшая Женщина / The Feral Woman [2016 Feature Foreign Straight Oral Threesomes WEB-DLRip 544p] Split Scenes sheker187 Скачать
1 | 0

28-11-2019 20:33  

Отключить всю рекламу на сайте

    Дорогой пользователь! Огромная просьба, поблагодарите релизера, оцените раздачу и оставьте свои комментарий, если Вы скачали Одичавшие через торрент бесплатно! Внесите свою лепту в развитие PiratBit!
    Комментировать посты могут только пользователи прошедшие не сложную регистрацию
    Показать сообщения:    

    Одичавшие через торрент
    Скачать бесплатно Одичавшие
    Одичавшие скачать торрент
    Одичавшие смотреть онлайн
    Cкачать фильм Одичавшие бесплатно
    Одичавшие скачать торрент в хорошем качестве
    Одичавшие смотреть онлайн бесплатно в хорошем качестве


    Вы не можете начинать темы
    Вы не можете отвечать на сообщения
    Вы не можете редактировать свои сообщения
    Вы не можете удалять свои сообщения
    Вы не можете голосовать в опросах
    Вы не можете прикреплять файлы к сообщениям
    Вы можете скачивать файлы