Ссылка на приватное зеркало нашего сайта всего за 1$. Внимание количество ограничено!!!

2 сезон

iTunes

1 сезон

1

2 сезон

2 сезон

iTunes

1 сезон

RePack

30

Новинка

ВАЖНО

ИГРА 18+

pack

RePack

MK11
pack

Забери бонус

RePack

jed

!!Акция!!

Alien_Rage

RePack

fifa19

RePack

Assassins Creed: Odyssey

RePack

NEED FOR SPEED™ PAYBACK

4 сезон

9 сезон

Бесстыжие 9 сезон

Все сериалы

все сериалы на PB.wtf

RePack

FAR CRY 5
  

Рубеж / Пограничная земля / Grenseland / Сезон: 1 / Серии: 1-8 из 8 (Руне Денстад Лангло) [2017, триллер, WEB-DL 720p] [DVO] (ViruseProject) pb.wtf

Рубеж через торрент pb.wtf

Размер: 6.19 GB | Добавлен: 2 года 1 мес. назад | Торрент скачан:31 раз
Скачать  

29-10-2018 09:01 Рубеж Скачать торрент  

Рубеж / Пограничная земля / Grenseland

Год выпуска: 2017
Страна: Норвегия
Жанр: триллер
Продолжительность: ~00:45:00

Перевод: Любительский (двухголосый закадровый) ViruseProject

Режиссёр: Руне Денстад Лангло
В ролях: Тобиас Зантельман, Эллен Доррит Петерсен, Беньямин Хельстад, Эйвинд Сэндер, Бьорн Скагестад и др.


Описание: Николай Андреассен возвращается в родную деревню после того, как дал показания против коллеги, которого назвал убийцей и продажным копом. Начальство отправило его в отпуск, и Николай поселился в доме брата. Спустя какое-то время неподалеку обнаруживают труп мужчины. Все указывает на то, что он повесился. Но что заставило его это сделать? И на самом ли деле это было самоубийство? Вскоре эта история запутывается настолько, что подозреваемым может стать даже самый близкий человек...


скриншот  

Качество: WEB-DL 720p
Контейнер: MKV
Видео: 1 280 x 720 (16:9), 2150 kb/s, 25.000 FPS
Аудио Rus: 48.0 kHz, AC3, 2 channels, 192 kb/s
Аудио Nor: 48.0 kHz, AC3, 6 channels, 384 kb/s
Субтитры: русские
General
Unique ID : 226248559993185754425843151521413459947 (0xAA35E33D7573D2C09F5E3F2D06F1EFEB)
Complete name : E:\Grenseland.S01E01.720p.WEB-DL.ViruseProject.mkv
Format : Matroska
Format version : Version 4 / Version 2
File size : 853 MiB
Duration : 44 min 7 s
Overall bit rate mode : Variable
Overall bit rate : 2 704 kb/s
Encoded date : UTC 2018-10-16 13:51:44
Writing application : mkvmerge v8.3.0 ('Over the Horizon') 64bit
Writing library : libebml v1.3.1 + libmatroska v1.4.2

Video
ID : 1
Format : AVC
Format/Info : Advanced Video Codec
Format profile : Main@L3.1
Format settings, CABAC : Yes
Format settings, ReFrames : 3 frames
Codec ID : V_MPEG4/ISO/AVC
Duration : 44 min 6 s
Bit rate mode : Variable
Bit rate : 2 150 kb/s
Maximum bit rate : 3 225 kb/s
Width : 1 280 pixels
Height : 720 pixels
Display aspect ratio : 16:9
Frame rate mode : Constant
Frame rate : 25.000 FPS
Color space : YUV
Chroma subsampling : 4:2:0
Bit depth : 8 bits
Scan type : Progressive
Bits/(Pixel*Frame) : 0.093
Stream size : 671 MiB (79%)
Writing library : x264 core 148 r2714 2daf636
Encoding settings : cabac=1 / ref=3 / deblock=1:0:0 / analyse=0x1:0x111 / me=umh / subme=10 / psy=1 / psy_rd=1.00:0.00 / mixed_ref=1 / me_range=24 / chroma_me=1 / trellis=2 / 8x8dct=0 / cqm=0 / deadzone=21,11 / fast_pskip=1 / chroma_qp_offset=-2 / threads=8 / lookahead_threads=1 / sliced_threads=0 / nr=0 / decimate=1 / interlaced=0 / bluray_compat=0 / stitchable=1 / constrained_intra=0 / bframes=2 / b_pyramid=0 / b_adapt=2 / b_bias=0 / direct=3 / weightb=1 / open_gop=0 / weightp=2 / keyint=50 / keyint_min=26 / scenecut=0 / intra_refresh=0 / rc_lookahead=50 / rc=2pass / mbtree=1 / bitrate=2150 / ratetol=1.0 / qcomp=0.50 / qpmin=6 / qpmax=51 / qpstep=4 / cplxblur=20.0 / qblur=0.5 / vbv_maxrate=3225 / vbv_bufsize=4300 / nal_hrd=vbr / filler=0 / ip_ratio=1.40 / aq=1:1.00
Default : Yes
Forced : No

Audio #1
ID : 2
Format : AC-3
Format/Info : Audio Coding 3
Format settings, Endianness : Big
Codec ID : A_AC3
Duration : 44 min 7 s
Bit rate mode : Constant
Bit rate : 192 kb/s
Channel(s) : 2 channels
Channel positions : Front: L R
Sampling rate : 48.0 kHz
Frame rate : 31.250 FPS (1536 spf)
Bit depth : 16 bits
Compression mode : Lossy
Stream size : 60.6 MiB (7%)
Title : ViruseProject
Language : Russian
Service kind : Complete Main
Default : Yes
Forced : No

Audio #2
ID : 3
Format : AC-3
Format/Info : Audio Coding 3
Format settings, Endianness : Big
Codec ID : A_AC3
Duration : 44 min 6 s
Bit rate mode : Constant
Bit rate : 384 kb/s
Channel(s) : 6 channels
Channel positions : Front: L C R, Side: L R, LFE
Sampling rate : 48.0 kHz
Frame rate : 31.250 FPS (1536 spf)
Bit depth : 16 bits
Compression mode : Lossy
Stream size : 121 MiB (14%)
Language : Norwegian
Service kind : Complete Main
Default : No
Forced : No

Text #1
ID : 4
Format : UTF-8
Codec ID : S_TEXT/UTF8
Codec ID/Info : UTF-8 Plain Text
Duration : 43 min 6 s
Bit rate : 68 b/s
Count of elements : 477
Stream size : 21.7 KiB (0%)
Title : ViruseProject
Language : Russian
Default : No
Forced : No

Text #2
ID : 5
Format : UTF-8
Codec ID : S_TEXT/UTF8
Codec ID/Info : UTF-8 Plain Text
Duration : 43 min 4 s
Bit rate : 43 b/s
Count of elements : 361
Stream size : 13.7 KiB (0%)
Title : Dansk
Language : Danish
Default : No
Forced : No

Text #3
ID : 6
Format : UTF-8
Codec ID : S_TEXT/UTF8
Codec ID/Info : UTF-8 Plain Text
Duration : 42 min 54 s
Bit rate : 47 b/s
Count of elements : 424
Stream size : 14.9 KiB (0%)
Language : English
Default : No
Forced : No
скриншот  скриншот  скриншот  
pb.wtf



Скачать Рубеж через торрент http://i80.fastpic.ru/big/2018/1017/55/bb9ce6ac7fe93e2ff89dfe3f56153e55.jpg Скачать фильм Рубеж через торрент бесплантно в хорошем качестве Описание: Николай Андреассен возвращается в родную деревню после того, как дал показания против коллеги, которого назвал убийцей и ... 1 10 1
Торрент: Зарегистрирован [2018-10-29 09:01] · скачан: 31 раз
Статус: √ проверено
Размер: 6.19 GB
Как cкачать? Как скачать Рубеж через торрент | qTorrent

28-11-2019 20:33  

Отключить всю рекламу на сайте

    Дорогой пользователь! Огромная просьба, поблагодарите релизера, оцените раздачу и оставьте свои комментарий, если Вы скачали Рубеж через торрент бесплатно! Внесите свою лепту в развитие PiratBit!
    Комментировать посты могут только пользователи прошедшие не сложную регистрацию
    Показать сообщения:    

    Рубеж через торрент
    Скачать бесплатно Рубеж
    Рубеж скачать торрент
    Рубеж смотреть онлайн
    Cкачать фильм Рубеж бесплатно
    Рубеж скачать торрент в хорошем качестве
    Рубеж смотреть онлайн бесплатно в хорошем качестве


    Вы не можете начинать темы
    Вы не можете отвечать на сообщения
    Вы не можете редактировать свои сообщения
    Вы не можете удалять свои сообщения
    Вы не можете голосовать в опросах
    Вы не можете прикреплять файлы к сообщениям
    Вы можете скачивать файлы