Ссылка на приватное зеркало нашего сайта всего за 1$. Внимание количество ограничено!!!

2 сезон

iTunes

1 сезон

1

iTunes

iTunes

iTunes

1 сезон

RePack

30

ИГРА 18+

pack

ВАЖНО

!!Акция!!

Alien_RageХит недели

RePack

MK11
pack

Забери бонус

RePack

jed

!!Акция!!

Alien_Rage

RePack

fifa19

RePack

Assassins Creed: Odyssey

RePack

NEED FOR SPEED™ PAYBACK

4 сезон

9 сезон

Бесстыжие 9 сезон

Все сериалы

все сериалы на PB.wtf

RePack

FAR CRY 5
  

Мажор / Сезон: 3 / Серии: 1-16 из 16 (Игорь Твердохлебов ) [2018, Криминал, драма, SATRip] pb.wtf

Мажор через торрент pb.wtf

Размер: 9.64 GB | Добавлен: 1 год 11 мес. назад | Торрент скачан:147 раз
Скачать  

29-10-2018 11:46 Мажор Скачать торрент  

Мажор-3
Год выпуска: 2018
Страна: Россия
Жанр: Криминал, драма
Продолжительность: ~ 00:52:00
Субтитры: отсутствуют

Режиссер: Игорь Твердохлебов

rating

В ролях:

Павел Прилучный, Карина Разумовская, Дмитрий Шевченко, Александр Обласов, Дмитрий Лысенков, Игорь Черневич, Михаил Елисеев, Анна Цуканова-Котт, Дана Абызова, Игорь Жижикин, Анна Вартанян, Михаил Шеломенцев, Даниил Кокин, Игорь Грабузов, Антон Чернов, Владимир Селезнёв (II), Игорь Ключников

Описание:

Игорь Соколовский давно перестал быть тем Мажором, для которого служба в полиции – вынужденная «ссылка». Давняя смерть матери и недавнее убийство отца – два события, определившие его дальнейшую жизнь – могут быть раскрыты во многом благодаря этой службе. Мажор растёт как профессионал, ежедневно работая над раскрытием различных преступлений, но расследование главной драмы его жизни ставит перед ним новые задачи. Чтобы отомстить за смерть отца, он в совершенстве овладел бизнес-стратегиями, чтобы найти и наказать убийцу матери, ему нужно освоить нечто совершенно новое. И самое сложное при этом – остаться в рамках закона. В поисках преступника Мажор окажется у черты, но останутся ли у него законные средства, чтобы наказать убийцу?

Качество: SATRip
Формат: AVI

Видео: 720x400 at 25.000 fps, XviD, ~1650 kbps avg
Аудио: Russian: 48 kHz, MP3, 2/0 (L,R) ch, ~192 kbps avg
скриншот  скриншот  скриншот  скриншот  

Общее
Полное имя : D:\Mazhor.S03.XviD.SATRip.25Kuzmich\Mazhor.s03.e01.XviD.SATRip.25Kuzmich.avi
Формат : AVI
Формат/Информация : Audio Video Interleave
Размер файла : 631 Мбайт
Продолжительность : 47 м. 40 с.
Общий поток : 1852 Кбит/сек
Программа кодирования : VirtualDubMod 1.5.10.3 | www.virtualdub-fr.org || (build 2550/release)
Библиотека кодирования : VirtualDubMod build 2550/release

Видео
Идентификатор : 0
Формат : MPEG-4 Visual
Профиль формата : Advanced Simple@L5
Параметр BVOP формата : 1
Параметр QPel формата : Нет
Параметр GMC формата : Без точки перехода
Параметр матрицы формата : Default (MPEG)
Идентификатор кодека : XVID
Идентификатор кодека/Подсказка : XviD
Продолжительность : 47 м. 40 с.
Битрейт : 1650 Кбит/сек
Ширина : 720 пикселей
Высота : 400 пикселей
Соотношение сторон : 16:9
Частота кадров : 25,000 кадров/сек
Цветовое пространство : YUV
Субдискретизация насыщенности : 4:2:0
Битовая глубина : 8 бит
Тип развёртки : Прогрессивная
Метод сжатия : С потерями
Бит/(Пиксели*Кадры) : 0.229
Размер потока : 563 Мбайт (89%)
Библиотека кодирования : XviD 1.2.1 (UTC 2008-12-04)

Аудио
Идентификатор : 1
Формат : MPEG Audio
Версия формата : Version 1
Профиль формата : Layer 3
Режим : Joint stereo
Расширение режима : MS Stereo
Идентификатор кодека : 55
Идентификатор кодека/Подсказка : MP3
Продолжительность : 47 м. 40 с.
Вид битрейта : Постоянный
Битрейт : 192 Кбит/сек
Каналы : 2 канала
Частота : 48,0 КГц
Метод сжатия : С потерями
Размер потока : 65,5 Мбайт (10%)
Выравнивание : Соединение по промежуткам
Продолжительность промежутка : 40 мс. (1,00 видеокадр)
Время предзагрузки промежутка : 504 мс.
Библиотека кодирования : LAME3.99r
Настройки программы : -m j -V 4 -q 2 -lowpass 18.6 -b 192

Внимание! Раздача ведётся путём добавления новых серий; при каждом добавлении создаётся новый торрент. Чтобы начать докачку новой серии, пользователям необходимо сделать следующее:
(1) остановить скачивание,
(2) удалить старый торрент у себя из клиента (старые серии удалять не надо),
(3) скачать новый торрент и запустить его у себя в клиенте вместо старого, при этом указать клиенту путь в старую папку куда и должно происходить скачивание новых серий.
Ваш клиент при этом должен произвести хеширование (проверку) старой папки (если не производит сам - помогите ему сделать это), и будет докачивать только те серии которых у вас ещё нет. Старые серии при этом не удаляются, а продолжают раздаваться!
Eсли вы уже удалили старые серии, то предотвратить повторную закачку старых серий можно, отжав галочку в соответствующих местах при запуске нового торрента. По возможности, желательно не удалять старые серии как можно дольше чтобы релизёр не столько продолжал раздавать старые серии, а смог сконцентрироваться на новых.
pb.wtf



Скачать Мажор через торрент http://a.radikal.ru/a14/1810/82/69de602b9a40.jpg Скачать фильм Мажор через торрент бесплантно в хорошем качестве Описание: Игорь Соколовский давно перестал быть тем Мажором, для которого служба в полиции – вынужденная «ссылка». Давняя смерть матери и ... 9.8 10 39
Торрент: Зарегистрирован [2018-11-15 14:05] · скачан: 147 раз
Статус: √ проверено
Размер: 9.64 GB
Как cкачать? Как скачать Мажор через торрент | qTorrent

% Раздел Тема Автор DL S | L
Зарубежные сериалы [ 49.57 GB ] Форс-мажоры / Костюмы / Suits / Сезон: 3 / Серии: 1-16 из 16 [2013 BDRip 1080p] MVO [TVShows] bober100 Скачать
3 | 0
Наши сериалы [ 34.01 GB ] Мажор / Сезон: 3 / Серии: 1-16 из 16 [2018 HDTV 1080i] bober100 Скачать
2 | 0
Наши сериалы [ 8.71 GB ] Мажор / Сезон: 3 / Серии: 1-16 из 16 [2018 WEB-DLRip] Sanekzade1989 Скачать
1 | 0
Наши сериалы [ 9.89 GB ] Мажор / Сезон: 3 / Серии: 1-16 из 16 [2018 WEB-DLRip-AVC] ExKinoRay Enigma2010 Скачать
2 | 0
Наши сериалы [ 9.91 GB ] Мажор / Сезон-3 / Серии: 1-16 из 16 [2018 SATRip-AVC] aleksan55 Скачать
1 | 0
Наши сериалы [ 19.32 GB ] Мажор / Сезон: 3 / Серии: 1-16 из 16 [2018 HDTVRip 720p] bober100 Скачать
1 | 0
Наши сериалы [ 10.36 GB ] Мажор / Сезон: 3 / Серии: 1-16 из 16 [2018 HDTVRip] bober100 Скачать
1 | 0

28-11-2019 20:33  

Отключить всю рекламу на сайте

    Дорогой пользователь! Огромная просьба, поблагодарите релизера, оцените раздачу и оставьте свои комментарий, если Вы скачали Мажор через торрент бесплатно! Внесите свою лепту в развитие PiratBit!
    Комментировать посты могут только пользователи прошедшие не сложную регистрацию
    Показать сообщения:    

    Мажор через торрент
    Скачать бесплатно Мажор
    Мажор скачать торрент
    Мажор смотреть онлайн
    Cкачать фильм Мажор бесплатно
    Мажор скачать торрент в хорошем качестве
    Мажор смотреть онлайн бесплатно в хорошем качестве


    Вы не можете начинать темы
    Вы не можете отвечать на сообщения
    Вы не можете редактировать свои сообщения
    Вы не можете удалять свои сообщения
    Вы не можете голосовать в опросах
    Вы не можете прикреплять файлы к сообщениям
    Вы можете скачивать файлы