Ссылка на приватное зеркало нашего сайта всего за 1$. Внимание количество ограничено!!!

2 сезон

iTunes

1 сезон

1

iTunes

iTunes

iTunes

1 сезон

RePack

30

ИГРА 18+

pack

ВАЖНО

!!Акция!!

Alien_RageХит недели

RePack

MK11
pack

Забери бонус

RePack

jed

!!Акция!!

Alien_Rage

RePack

fifa19

RePack

Assassins Creed: Odyssey

RePack

NEED FOR SPEED™ PAYBACK

4 сезон

9 сезон

Бесстыжие 9 сезон

Все сериалы

все сериалы на PB.wtf

RePack

FAR CRY 5
  

Ворона / Сезон: 1 / Серии: 1-12 из 12 (Ольга Ангелова, Евгений Сосницкий) [2018, детектив, криминал, SATRip] pb.wtf

Ворона через торрент pb.wtf

Размер: 7.64 GB | Добавлен: 1 год 11 мес. назад | Торрент скачан:41 раз
Скачать  

29-10-2018 12:47 Ворона Скачать торрент  

Ворона
Год выпуска: 2018
Страна: Россия
Жанр: детектив, криминал
Продолжительность: ~ 00:48:00
Субтитры: отсутствуют

Режиссер: Ольга Ангелова, Евгений Сосницкий



В ролях:

Анна Воронцова, или, как прозвали ее коллеги в следственном комитете, Ворона, в течение трёх недель отказывается возбуждать дело о пропаже известного богемного фотографа. По роковому стечению обстоятельств, этот человек погибает. Теперь, терзаемая муками совести героиня, ставит своей задачей во чтобы то ни стало разобраться в этом деле.

Описание:

Анна Воронцова, или, как прозвали ее коллеги в следственном комитете, Ворона, в течение трёх недель отказывается возбуждать дело о пропаже известного богемного фотографа. По роковому стечению обстоятельств, этот человек погибает. Теперь, терзаемая муками совести героиня, ставит своей задачей во чтобы то ни стало разобраться в этом деле.

Качество: SATRip
Формат: AVI

Видео: XviD, ~ 1650 Кбит/с, 704x352
Аудио: MP3, 2 ch, 192 Кбит/с
скриншот  скриншот  скриншот  скриншот  

Общее
Полное имя : D:\Vorona.2018.XviD.SATRip.25Kuzmich\Vorona.e01.XviD.SATRip.25Kuzmich.avi
Формат : AVI
Формат/Информация : Audio Video Interleave
Размер файла : 632 Мбайт
Продолжительность : 47 м. 45 с.
Общий поток : 1852 Кбит/сек
Программа кодирования : VirtualDubMod 1.5.10.3 | www.virtualdub-fr.org || (build 2550/release)
Библиотека кодирования : VirtualDubMod build 2550/release

Видео
Идентификатор : 0
Формат : MPEG-4 Visual
Профиль формата : Advanced Simple@L5
Параметр BVOP формата : 1
Параметр QPel формата : Нет
Параметр GMC формата : Без точки перехода
Параметр матрицы формата : Default (MPEG)
Идентификатор кодека : XVID
Идентификатор кодека/Подсказка : XviD
Продолжительность : 47 м. 45 с.
Битрейт : 1650 Кбит/сек
Ширина : 704 пикселя
Высота : 352 пикселя
Соотношение сторон : 2,000
Частота кадров : 25,000 кадров/сек
Цветовое пространство : YUV
Субдискретизация насыщенности : 4:2:0
Битовая глубина : 8 бит
Тип развёртки : Прогрессивная
Метод сжатия : С потерями
Бит/(Пиксели*Кадры) : 0.266
Размер потока : 564 Мбайт (89%)
Библиотека кодирования : XviD 1.2.1 (UTC 2008-12-04)

Аудио
Идентификатор : 1
Формат : MPEG Audio
Версия формата : Version 1
Профиль формата : Layer 3
Режим : Joint stereo
Расширение режима : MS Stereo
Идентификатор кодека : 55
Идентификатор кодека/Подсказка : MP3
Продолжительность : 47 м. 45 с.
Вид битрейта : Постоянный
Битрейт : 192 Кбит/сек
Каналы : 2 канала
Частота : 48,0 КГц
Метод сжатия : С потерями
Размер потока : 65,6 Мбайт (10%)
Выравнивание : Соединение по промежуткам
Продолжительность промежутка : 40 мс. (1,00 видеокадр)
Время предзагрузки промежутка : 504 мс.
Библиотека кодирования : LAME3.99r
Настройки программы : -m j -V 4 -q 2 -lowpass 18.6 -b 192

Когда раздача ведётся путём добавления новых серий, при каждом добавлении создётся новый торрент. Чтобы начать докачку новой серии, пользователям необходимо сделать следующее:
(1) остановить скачивание,
(2) удалить старый торрент у себя из клиента (старые серии удалять не надо),
(3) скачать новый торрент и запустить его у себя в клиенте вместо старого, при этом указать клиенту путь в старую папку, куда и должно происходить скачивание новых серий.
Ваш клиент при этом должен произвести хеширование (проверку) старой папки (если не производит сам - помогите ему сделать это), и будет докачивать только те серии, которых у вас ещё нет. Старые серии при этом не удаляются, а продолжают раздаваться!
Eсли вы уже удалили старые серии, то предотвратить повторную закачку старых серий можно, отжав галочку в соответсвующих местах при запуске нового торрента. По возможности, желательно не удалять старые серии как можно дольше, чтобы релизёр не столько продолжал раздавать старые серии, а смог сконцентрироваться на новых.
pb.wtf



Скачать Ворона через торрент https://c.radikal.ru/c31/1810/90/e8c69220b612.jpg Скачать фильм Ворона через торрент бесплантно в хорошем качестве Описание: Анна Воронцова, или, как прозвали ее коллеги в следственном комитете, Ворона, в течение трёх недель отказывается возбуждать дело ... 9.9 10 12
Торрент: Зарегистрирован [2018-11-02 17:58] · скачан: 41 раз
Статус: √ проверено
Размер: 7.64 GB
Как cкачать? Как скачать Ворона через торрент | qTorrent

% Раздел Тема Автор DL S | L
Наши сериалы [ 6.53 GB ] Ворона / Сезон: 1 / Серии: 1-12 из 12 [2018 WEBRip] bober100 Скачать
1 | 0
Наши сериалы [ 15.07 GB ] Ворона / Сезон: 1 / Серии: 1-12 из 12 [2018 WEBRip 720p] bober100 Скачать
1 | 0
Наши сериалы [ 8.95 GB ] Ворона / Сезон: 1 / Серии: 1-12 из 12 [2018 WEB-DLRip-AVC] bober100 Скачать
1 | 0
Наши сериалы [ 25.06 GB ] Ворона / Сезон: 1 / Серии: 1-12 из 12 [2018 WEB-DL 1080p] bober100 Скачать
1 | 0

28-11-2019 20:33  

Отключить всю рекламу на сайте

    Дорогой пользователь! Огромная просьба, поблагодарите релизера, оцените раздачу и оставьте свои комментарий, если Вы скачали Ворона через торрент бесплатно! Внесите свою лепту в развитие PiratBit!
    Комментировать посты могут только пользователи прошедшие не сложную регистрацию
    Показать сообщения:    

    Ворона через торрент
    Скачать бесплатно Ворона
    Ворона скачать торрент
    Ворона смотреть онлайн
    Cкачать фильм Ворона бесплатно
    Ворона скачать торрент в хорошем качестве
    Ворона смотреть онлайн бесплатно в хорошем качестве


    Вы не можете начинать темы
    Вы не можете отвечать на сообщения
    Вы не можете редактировать свои сообщения
    Вы не можете удалять свои сообщения
    Вы не можете голосовать в опросах
    Вы не можете прикреплять файлы к сообщениям
    Вы можете скачивать файлы