новый адрес
Ссылка на приватное зеркало всего за 1$. Внимание количество ограничено!!!

iTunes

1+1

iTunes

мы

iTunes

1

iTunes

Чернобыль

iTunes

Ральф против интернета

Лицензия

ПШазам

Лицензия

Оно 2

Лицензия

30
pack

Вам бонус

ВАЖНО

!!Акция!!

Alien_RageХит недели

RePack

Resident Evil 21

ИГРА 18+

pack

RePack

jed

!!Акция!!

Alien_Rage

RePack

fifa19

RePack

Assassins Creed: Odyssey

RePack

NEED FOR SPEED™ PAYBACK

3 сезон

9 сезон

Бесстыжие 9 сезон

Все сериалы

все сериалы на PB.wtf

RePack

FAR CRY 5
Ребята, катастрофически не хватает 1900р. для оплаты серверов за Октябрь (всвязи с блокировками трафик упал в 3 раза), 1-2р., выручайте.
  

Не оставляй следов / Leave No Trace (Дебра Граник) [2018, драма, BDRip-AVC] 2xMVO [HDRezka Studio, iTunes] pb.wtf

Не оставляй следов через торрент pb.wtf

Раздают: 1 [ 0 KB/s ]
Размер: 2.44 GB | Добавлен: 1 год 1 мес. назад | Торрент скачан:284 раза
Скачать  

29-10-2018 14:02 Не оставляй следов Скачать торрент  

Не оставляй следов / Leave No Trace
«Escape To The Future!»
Год выпуска: 2018
Страна: США
Жанр: драма
Продолжительность: 01:49:08
Перевод:

• Профессиональный (многоголосый) | iTunes
• Профессиональный (многоголосый) | HDRezka Studio

Субтитры: Русские (форс., полные), Английские (полные, SDH)

Режиссер: Дебра Граник

rating

В ролях:

Томасин МакКензи, Бен Фостер, Джеффри Риффлард, Майкл Дрэйпер, Дерек Джон Дрешер, Питер Симпсон, Эрик МакГлотлин, Дэна Милликэн, Райан Столяр

Описание:

Уилл и Том — отец и дочь, которые живут в лесу. Точнее, в лесопарке Портленда, добровольно изолировав себя от общества — где войны, травмы, беды; лучше пить дождевую воду и питаться дарами природы, лишь изредка предпринимая краткосрочные вылазки в город, — только так и спасешься. Проблема в том, что с точки зрения властей, бездомным быть дозволяется, жить на общественной земле — нет. После того, как полиция и рейнджеры обнаруживают нелегальных Робинзонов, социальные службы вынуждают Уилла и Том переселиться из заповедника…

Качество: BDRip-AVC
Формат: MKV

Видео: 1024x554 (1.85:1), 23,976 fps, x264 ~2 171 kbps avg, 0.160 bit/pixel
Аудио#1: 48 kHz, AC3 Dolby Digital, 3/2 (L,C,R,l,r) + LFE ch, ~384.00 kbps avg | RUS (iTunes)
Аудио#2: 48 kHz, AC3 Dolby Digital, 2 (L,R) ch, ~192.00 kbps avg | RUS (HDRezka Studio)
Аудио#3: 48 kHz, AC3 Dolby Digital, 3/2 (L,C,R,l,r) + LFE ch, ~448.00 kbps avg | ENG
скриншот  скриншот  скриншот  скриншот  скриншот  

Общее
Уникальный идентификатор : 337995913088226608103524069379223945871 (0xFE47A51F5B43308ABCFED1A01989828F)
Полное имя : F:OlLanDGroupLeave.No.Trace.2018.BDRip(AVC).OlLanDGroup.mkv
Формат : Matroska
Версия формата : Version 4 / Version 2
Размер файла : 2,44 Гбайт
Продолжительность : 1 ч. 49 м.
Общий поток : 3198 Кбит/сек
Название фильма : Leave.No.Trace.2018 #TorpedoUK#
Дата кодирования : UTC 2018-10-29 13:14:23
Программа кодирования : mkvmerge v25.0.0 ('Prog Noir') 64-bit
Библиотека кодирования : libebml v1.3.6 + libmatroska v1.4.9
Обложка : Yes
Attachments : small_cover_land.jpg / cover.jpg / cover_land.jpg / small_cover.jpg

Видео
Идентификатор : 1
Формат : AVC
Формат/Информация : Advanced Video Codec
Профиль формата : High@L4.1
Параметр CABAC формата : Да
Параметр ReFrames формата : 10 кадров
Идентификатор кодека : V_MPEG4/ISO/AVC
Продолжительность : 1 ч. 49 м.
Битрейт : 2171 Кбит/сек
Ширина : 1024 пикселя
Высота : 554 пикселя
Соотношение сторон : 1,85:1
Режим частоты кадров : Постоянный
Частота кадров : 23,976 (24000/1001) кадра/сек
Цветовое пространство : YUV
Субдискретизация насыщенности : 4:2:0
Битовая глубина : 8 бит
Тип развёртки : Прогрессивная
Бит/(Пиксели*Кадры) : 0.160
Размер потока : 1,66 Гбайт (68%)
Библиотека кодирования : x264 core 146 r2538 121396c
Настройки программы : cabac=1 / ref=10 / deblock=1:-3:-3 / analyse=0x3:0x113 / me=umh / subme=11 / psy=1 / psy_rd=0.98:0.05 / mixed_ref=1 / me_range=48 / chroma_me=1 / trellis=2 / 8x8dct=1 / cqm=0 / deadzone=21,11 / fast_pskip=1 / chroma_qp_offset=-3 / threads=6 / lookahead_threads=1 / sliced_threads=0 / nr=0 / decimate=1 / interlaced=0 / bluray_compat=0 / constrained_intra=0 / bframes=10 / b_pyramid=2 / b_adapt=2 / b_bias=0 / direct=3 / weightb=1 / open_gop=0 / weightp=2 / keyint=240 / keyint_min=23 / scenecut=40 / intra_refresh=0 / rc_lookahead=40 / rc=2pass / mbtree=0 / bitrate=2171 / ratetol=1.0 / qcomp=0.60 / qpmin=0 / qpmax=69 / qpstep=4 / cplxblur=20.0 / qblur=0.5 / vbv_maxrate=50000 / vbv_bufsize=62500 / nal_hrd=none / filler=0 / ip_ratio=1.40 / pb_ratio=1.30 / aq=1:1.00
Язык : English
Default : Да
Forced : Нет

Аудио #1
Идентификатор : 2
Формат : AC-3
Формат/Информация : Audio Coding 3
Расширение режима : CM (complete main)
Параметр Endianness формата : Big
Идентификатор кодека : A_AC3
Продолжительность : 1 ч. 49 м.
Вид битрейта : Постоянный
Битрейт : 384 Кбит/сек
Каналы : 6 каналов
Расположение каналов : Front: L C R, Side: L R, LFE
Частота : 48,0 КГц
Частота кадров : 31,250 кадров/сек (1536 spf)
Битовая глубина : 16 бит
Метод сжатия : С потерями
Размер потока : 300 Мбайт (12%)
Заголовок : MVO [iTunes]
Язык : Russian
Default : Да
Forced : Нет

Аудио #2
Идентификатор : 3
Формат : AC-3
Формат/Информация : Audio Coding 3
Расширение режима : CM (complete main)
Параметр Endianness формата : Big
Идентификатор кодека : A_AC3
Продолжительность : 1 ч. 49 м.
Вид битрейта : Постоянный
Битрейт : 192 Кбит/сек
Каналы : 2 канала
Расположение каналов : Front: L R
Частота : 48,0 КГц
Частота кадров : 31,250 кадров/сек (1536 spf)
Битовая глубина : 16 бит
Метод сжатия : С потерями
Размер потока : 150 Мбайт (6%)
Заголовок : MVO [HDRezka Studio]
Язык : Russian
Default : Нет
Forced : Нет

Аудио #3
Идентификатор : 4
Формат : AC-3
Формат/Информация : Audio Coding 3
Расширение режима : CM (complete main)
Параметр Endianness формата : Big
Идентификатор кодека : A_AC3
Продолжительность : 1 ч. 49 м.
Вид битрейта : Постоянный
Битрейт : 448 Кбит/сек
Каналы : 6 каналов
Расположение каналов : Front: L C R, Side: L R, LFE
Частота : 48,0 КГц
Частота кадров : 31,250 кадров/сек (1536 spf)
Битовая глубина : 16 бит
Метод сжатия : С потерями
Размер потока : 350 Мбайт (14%)
Заголовок : [Original]
Язык : English
Default : Нет
Forced : Нет

Текст #1
Идентификатор : 5
Формат : UTF-8
Идентификатор кодека : S_TEXT/UTF8
Идентификатор кодека/Информация : UTF-8 Plain Text
Продолжительность : 21 м. 37 с.
Битрейт : 8 бит/сек
Count of elements : 21
Размер потока : 1,31 Кбайт (0%)
Заголовок : Forced
Язык : Russian
Default : Да
Forced : Нет

Текст #2
Идентификатор : 6
Формат : UTF-8
Идентификатор кодека : S_TEXT/UTF8
Идентификатор кодека/Информация : UTF-8 Plain Text
Продолжительность : 1 ч. 39 м.
Битрейт : 54 бит/сек
Count of elements : 773
Размер потока : 39,9 Кбайт (0%)
Заголовок : Full
Язык : Russian
Default : Нет
Forced : Нет

Текст #3
Идентификатор : 7
Формат : UTF-8
Идентификатор кодека : S_TEXT/UTF8
Идентификатор кодека/Информация : UTF-8 Plain Text
Продолжительность : 1 ч. 42 м.
Битрейт : 32 бит/сек
Count of elements : 793
Размер потока : 24,3 Кбайт (0%)
Заголовок : Full
Язык : English
Default : Нет
Forced : Нет

Текст #4
Идентификатор : 8
Формат : UTF-8
Идентификатор кодека : S_TEXT/UTF8
Идентификатор кодека/Информация : UTF-8 Plain Text
Продолжительность : 1 ч. 46 м.
Битрейт : 38 бит/сек
Count of elements : 1002
Размер потока : 30,3 Кбайт (0%)
Заголовок : SDH
Язык : English
Default : Нет
Forced : Нет

Меню
00:00:00.000 : en:Chapter 01
00:06:03.863 : en:Chapter 02
00:12:19.113 : en:Chapter 03
00:17:38.974 : en:Chapter 04
00:24:16.079 : en:Chapter 05
00:31:44.569 : en:Chapter 06
00:37:35.878 : en:Chapter 07
00:43:43.662 : en:Chapter 08
00:46:33.624 : en:Chapter 09
00:51:24.498 : en:Chapter 10
00:58:27.212 : en:Chapter 11
01:02:13.604 : en:Chapter 12
01:07:40.056 : en:Chapter 13
01:11:50.347 : en:Chapter 14
01:17:27.684 : en:Chapter 15
01:22:42.874 : en:Chapter 16
01:28:44.485 : en:Chapter 17
01:34:25.868 : en:Chapter 18
01:36:38.542 : en:Chapter 19
01:43:31.914 : en:Chapter 20
pb.wtf



Скачать Не оставляй следов через торрент http://img11.lostpic.net/2018/10/08/69a42bf0780d8eb320ba2d1f91b9470b.jpg Скачать фильм Не оставляй следов через торрент бесплантно в хорошем качестве Описание: Уилл и Том — отец и дочь, которые живут в лесу. Точнее, в лесопарке Портленда, добровольно изолировав себя от общества — где ... 10 10 6
Торрент: Зарегистрирован [2018-10-29 14:02] · скачан: 284 раз
Статус: √ проверено
Размер: 2.44 GB
Как cкачать? Как скачать Не оставляй следов через торрент | qTorrent

% Раздел Тема Автор DL S | L
Фильмы 2018 [DVDrip, WEB-DLRip, HDrip] (DUB, MVO) [ 1.41 GB ] Не оставляй следов / Leave No Trace [2018 BDRip] MVO bober100 Скачать
3 | 0
Фильмы 2018 [DVDrip, WEB-DLRip, HDrip] (DUB, MVO) [ 745 MB ] Не оставляй следов / Leave No Trace [2018 HDRip] MVO bober100 Скачать
1 | 0
Фильмы [HD 720p, 1080p] (Хороший звук DUB, MVO) [ 11.06 GB ] Не оставляй следов / Leave No Trace [2018 BDRip 1080p] MVO bober100 Скачать
2 | 0
Фильмы (Blu-ray, BD-Remux, HDDVD) [ 31.75 GB ] Не оставляй следов / Leave No Trace [2018 BD Remux 1080p] MVO bober100 Скачать
1 | 0
Фильмы [HD 720p, 1080p] (Хороший звук DUB, MVO) [ 4.68 GB ] Не оставляй следов / Leave No Trace [2018 BDRip 720p] MVO bober100 Скачать
3 | 0

28-11-2019 20:33  

Отключить всю рекламу на сайте

    Дорогой пользователь! Огромная просьба, поблагодарите релизера, оцените раздачу и оставьте свои комментарий, если Вы скачали Не оставляй следов через торрент бесплатно! Внесите свою лепту в развитие PiratBit!
    Комментировать посты могут только пользователи прошедшие не сложную регистрацию
    Показать сообщения:    

    Не оставляй следов через торрент
    Скачать бесплатно Не оставляй следов
    Не оставляй следов скачать торрент
    Не оставляй следов смотреть онлайн
    Cкачать фильм Не оставляй следов бесплатно
    Не оставляй следов скачать торрент в хорошем качестве
    Не оставляй следов смотреть онлайн бесплатно в хорошем качестве


    Вы не можете начинать темы
    Вы не можете отвечать на сообщения
    Вы не можете редактировать свои сообщения
    Вы не можете удалять свои сообщения
    Вы не можете голосовать в опросах
    Вы не можете прикреплять файлы к сообщениям
    Вы можете скачивать файлы