Доктор Стрэндж

Лицензия

Добыча

Дубляж

Дом дракона

1 сезон

Тор

Дубляж

В эфире

Дубляж

Там, где раки поют

MVO

Властелин колец

1 сезон

Ultimate

pack

Рекомендуем

30

Пиратка

ВАЖНО

ВАЖНО

Ghostwire

Пиратка

jed

RePack

nioh2

RePack

RDR2

RePack

NEED FOR SPEED™ PAYBACK

RePack

скачать торрент

Кинопоиск HD

Острые козырьки 6 сезон

6 сезон

FAR CRY 6

RePack

скачать торрент

Лицензия

скачать торрент

MVO

1

1 сезон

скачать торрент

1 сезон

скачать торрент

Лицензия

  

Принцесса Мононоке / Mononoke-hime (Хаяо Миядзаки) [1997 г., аниме, мультфильм, фэнтези, драма, приключения, BDRip 1080p, Дубляж+2хMVO+4хAVO+DVO]

Принцесса Мононоке через торрент pb.wtf

Раздают: 1 [ 0 KB/s ]
Размер: 5.61 GB | Добавлен: 4 года назад | Торрент скачан:130 раз
Смотреть онлайн | Скачать   

29-10-2018 15:28 Принцесса Мононоке Скачать торрент  

Принцесса Мононоке / Mononoke-hime
Год выпуска: 1997
Страна: Япония
Жанр: аниме, мультфильм, фэнтези, драма, приключения
Продолжительность: 2:13:38
Перевод: Дубляж
Субтитры: Русские (Киномания, Tycoon, Ruscico), английские

Режиссер: Хаяо Миядзаки

rating

Описание: Юный принц Аситака, убив вепря, навлек на себя смертельное проклятие. Старая знахарка предсказала ему, что только он сам способен изменить свою судьбу. И отважный воин отправился в опасное путешествие.
Доп. информация: -
H.265/HEVC (High Efficiency Video Coding) - это новый стандарт кодирования видео.
- Стандарт H.265/HEVC является логическим продолжением стандарта
H.264/AVC (Advanced Video Coding), и характеризуется более эффективными
алгоритмами сжатия, а также поддержкой высокого разрешения вплоть до 8K UHD
(8192x4320). Первая версия стандарта H.265 была опубликована в начале 2013 года.
- Рипы в фомате HEVC поддерживается не всеми аппаратными проигрывателями.
- Для корректного воспроизведения может потребоваться обновление ПО.
- Владельцам несовместимого железа просьба не беспокоить,
есть альтернативные релизы.
Качество: BDRip 1080p
Формат: MKV
Видео кодек: H.265
Аудио кодек: AC3
Видео: 1920x1024, ~2304 Kbps
Аудио#1: AC3, 6 ch, 448 Kbps - Дублированный (Реанимедиа)
Аудио#2: AC3, 6 ch, 384 Kbps - MVO, (Киномания)
Аудио#3: AC3, 2 ch, 192 Kbps - MVO, (ВестВидео)
Аудио#4: AC3, 6 ch, 384 Kbps - DVO, (Tycoon)
Аудио#5: AC3, 6 ch, 384 Kbps - AVO, (Гаврилов)
Аудио#6: AC3, 6 ch, 384 Kbps - AVO, (Визгунов)
Аудио#7: AC3, 2 ch, 192 Kbps - AVO, (Гланц)
Аудио#8: AC3, 6 ch, 448 Kbps - AVO, (Толстобров)
Аудио#9: AC3, 6 ch, 448 Kbps - Английский
Аудио#10: AC3, 6 ch, 448 Kbps - Японский
Релиз от: Мичман:

Общее
Уникальный идентификатор : 10359774783982200984573292010146719632 (0x7CB3855060DCE957CE348E1BCBD6790)
Полное имя : F:\РАЗДАЧИ\Принцесса Мононоке. 1997. 1080p. HEVC. 10Bit..mkv
Формат : Matroska
Версия формата : Version 4 / Version 2
Размер файла : 5,61 Гбайт
Продолжительность : 2 ч. 13 м.
Общий поток : 6009 Кбит/сек
Дата кодирования : UTC 2018-10-26 13:36:04
Программа кодирования : mkvmerge v28.1.0 ('Morning Child') 64-bit
Библиотека кодирования : libebml v1.3.6 + libmatroska v1.4.9
Обложка : Yes
Attachments : cover.jpg

Видео
Идентификатор : 1
Формат : HEVC
Формат/Информация : High Efficiency Video Coding
Профиль формата : Main [email protected]@Main
Идентификатор кодека : V_MPEGH/ISO/HEVC
Продолжительность : 2 ч. 13 м.
Битрейт : 2304 Кбит/сек
Ширина : 1920 пикселей
Высота : 1024 пикселя
Соотношение сторон : 1,85:1
Режим частоты кадров : Постоянный
Частота кадров : 23,976 (24000/1001) кадра/сек
Цветовое пространство : YUV
Субдискретизация насыщенности : 4:2:0
Битовая глубина : 10 бит
Бит/(Пиксели*Кадры) : 0.049
Размер потока : 2,15 Гбайт (38%)
Библиотека кодирования : x265 2.5+6-d11482e5fedb:[Windows][GCC 6.2.1][64 bit] 10bit
Настройки программы : cpuid=1050111 / frame-threads=3 / numa-pools=8 / wpp / no-pmode / no-pme / no-psnr / no-ssim / log-level=2 / input-csp=1 / input-res=1920x1024 / interlace=0 / total-frames=191878 / level-idc=0 / high-tier=1 / uhd-bd=0 / ref=5 / no-allow-non-conformance / no-repeat-headers / annexb / no-aud / no-hrd / info / hash=0 / no-temporal-layers / open-gop / min-keyint=23 / keyint=250 / bframes=8 / b-adapt=2 / b-pyramid / bframe-bias=0 / rc-lookahead=80 / lookahead-slices=6 / scenecut=40 / no-intra-refresh / ctu=64 / min-cu-size=8 / no-rect / no-amp / max-tu-size=32 / tu-inter-depth=1 / tu-intra-depth=1 / limit-tu=0 / rdoq-level=0 / dynamic-rd=0.00 / no-ssim-rd / signhide / no-tskip / nr-intra=0 / nr-inter=0 / no-constrained-intra / strong-intra-smoothing / max-merge=3 / limit-refs=3 / limit-modes / me=3 / subme=5 / merange=57 / temporal-mvp / weightp / weightb / no-analyze-src-pics / deblock=0:0 / sao / no-sao-non-deblock / rd=3 / no-early-skip / rskip / no-fast-intra / no-tskip-fast / no-cu-lossless / no-b-intra / rdpenalty=0 / psy-rd=0.30 / psy-rdoq=0.00 / no-rd-refine / analysis-reuse-mode=0 / no-lossless / cbqpoffs=0 / crqpoffs=0 / rc=abr / bitrate=2303 / qcomp=0.60 / qpstep=4 / stats-write=0 / stats-read=2 / cplxblur=20.0 / qblur=0.5 / ipratio=1.40 / pbratio=1.30 / aq-mode=3 / aq-strength=1.00 / cutree / zone-count=0 / no-strict-cbr / qg-size=32 / no-rc-grain / qpmax=69 / qpmin=0 / no-const-vbv / sar=0 / overscan=0 / videoformat=5 / range=0 / colorprim=2 / transfer=2 / colormatrix=2 / chromaloc=0 / display-window=0 / max-cll=0,0 / min-luma=0 / max-luma=1023 / log2-max-poc-lsb=8 / vui-timing-info / vui-hrd-info / slices=1 / opt-qp-pps / opt-ref-list-length-pps / no-multi-pass-opt-rps / scenecut-bias=0.05 / no-opt-cu-delta-qp / aq-motion / no-hdr / no-hdr-opt / no-dhdr10-opt / analysis-reuse-level=5 / scale-factor=0 / refine-intra=0 / refine-inter=0 / refine-mv=0 / no-limit-sao / ctu-info=0
Default : Да
Forced : Нет

Аудио #1
Идентификатор : 2
Формат : AC-3
Формат/Информация : Audio Coding 3
Идентификатор кодека : A_AC3
Продолжительность : 2 ч. 13 м.
Вид битрейта : Постоянный
Битрейт : 448 Кбит/сек
Каналы : 6 каналов
Расположение каналов : Front: L C R, Side: L R, LFE
Частота : 48,0 КГц
Частота кадров : 31,250 кадров/сек (1536 SPF)
Битовая глубина : 16 бит
Метод сжатия : С потерями
Размер потока : 427 Мбайт (7%)
Заголовок : ReaniMedia
Язык : Russian
ServiceKind/String : Complete Main
Default : Да
Forced : Да

Аудио #2
Идентификатор : 3
Формат : AC-3
Формат/Информация : Audio Coding 3
Идентификатор кодека : A_AC3
Продолжительность : 2 ч. 13 м.
Вид битрейта : Постоянный
Битрейт : 384 Кбит/сек
Каналы : 6 каналов
Расположение каналов : Front: L C R, Side: L R, LFE
Частота : 48,0 КГц
Частота кадров : 31,250 кадров/сек (1536 SPF)
Битовая глубина : 16 бит
Метод сжатия : С потерями
Размер потока : 366 Мбайт (6%)
Заголовок : Киномания
Язык : Russian
ServiceKind/String : Complete Main
Default : Нет
Forced : Нет

Аудио #3
Идентификатор : 4
Формат : AC-3
Формат/Информация : Audio Coding 3
Идентификатор кодека : A_AC3
Продолжительность : 2 ч. 13 м.
Вид битрейта : Постоянный
Битрейт : 192 Кбит/сек
Каналы : 2 канала
Расположение каналов : Front: L R
Частота : 48,0 КГц
Частота кадров : 31,250 кадров/сек (1536 SPF)
Битовая глубина : 16 бит
Метод сжатия : С потерями
Размер потока : 183 Мбайт (3%)
Заголовок : VestVideo
Язык : Russian
ServiceKind/String : Complete Main
Default : Нет
Forced : Нет

Аудио #4
Идентификатор : 5
Формат : AC-3
Формат/Информация : Audio Coding 3
Идентификатор кодека : A_AC3
Продолжительность : 2 ч. 13 м.
Вид битрейта : Постоянный
Битрейт : 384 Кбит/сек
Каналы : 6 каналов
Расположение каналов : Front: L C R, Side: L R, LFE
Частота : 48,0 КГц
Частота кадров : 31,250 кадров/сек (1536 SPF)
Битовая глубина : 16 бит
Метод сжатия : С потерями
Размер потока : 366 Мбайт (6%)
Заголовок : Tycoon
Язык : Russian
ServiceKind/String : Complete Main
Default : Нет
Forced : Нет

Аудио #5
Идентификатор : 6
Формат : AC-3
Формат/Информация : Audio Coding 3
Идентификатор кодека : A_AC3
Продолжительность : 2 ч. 13 м.
Вид битрейта : Постоянный
Битрейт : 384 Кбит/сек
Каналы : 6 каналов
Расположение каналов : Front: L C R, Side: L R, LFE
Частота : 48,0 КГц
Частота кадров : 31,250 кадров/сек (1536 SPF)
Битовая глубина : 16 бит
Метод сжатия : С потерями
Размер потока : 366 Мбайт (6%)
Заголовок : Гаврилов
Язык : Russian
ServiceKind/String : Complete Main
Default : Нет
Forced : Нет

Аудио #6
Идентификатор : 7
Формат : AC-3
Формат/Информация : Audio Coding 3
Идентификатор кодека : A_AC3
Продолжительность : 2 ч. 13 м.
Вид битрейта : Постоянный
Битрейт : 384 Кбит/сек
Каналы : 6 каналов
Расположение каналов : Front: L C R, Side: L R, LFE
Частота : 48,0 КГц
Частота кадров : 31,250 кадров/сек (1536 SPF)
Битовая глубина : 16 бит
Метод сжатия : С потерями
Размер потока : 367 Мбайт (6%)
Заголовок : Визгунов
Язык : Russian
ServiceKind/String : Complete Main
Default : Нет
Forced : Нет

Аудио #7
Идентификатор : 8
Формат : AC-3
Формат/Информация : Audio Coding 3
Идентификатор кодека : A_AC3
Продолжительность : 2 ч. 13 м.
Вид битрейта : Постоянный
Битрейт : 192 Кбит/сек
Каналы : 2 канала
Расположение каналов : Front: L R
Частота : 48,0 КГц
Частота кадров : 31,250 кадров/сек (1536 SPF)
Битовая глубина : 16 бит
Метод сжатия : С потерями
Размер потока : 183 Мбайт (3%)
Заголовок : Гланц и Королева
Язык : Russian
ServiceKind/String : Complete Main
Default : Нет
Forced : Нет

Аудио #8
Идентификатор : 9
Формат : AC-3
Формат/Информация : Audio Coding 3
Идентификатор кодека : A_AC3
Продолжительность : 2 ч. 13 м.
Вид битрейта : Постоянный
Битрейт : 448 Кбит/сек
Каналы : 6 каналов
Расположение каналов : Front: L C R, Side: L R, LFE
Частота : 48,0 КГц
Частота кадров : 31,250 кадров/сек (1536 SPF)
Битовая глубина : 16 бит
Метод сжатия : С потерями
Размер потока : 427 Мбайт (7%)
Заголовок : Толстобров
Язык : Russian
ServiceKind/String : Complete Main
Default : Нет
Forced : Нет

Аудио #9
Идентификатор : 10
Формат : AC-3
Формат/Информация : Audio Coding 3
Идентификатор кодека : A_AC3
Продолжительность : 2 ч. 13 м.
Вид битрейта : Постоянный
Битрейт : 448 Кбит/сек
Каналы : 6 каналов
Расположение каналов : Front: L C R, Side: L R, LFE
Частота : 48,0 КГц
Частота кадров : 31,250 кадров/сек (1536 SPF)
Битовая глубина : 16 бит
Метод сжатия : С потерями
Размер потока : 427 Мбайт (7%)
Заголовок : Анг.
Язык : English
ServiceKind/String : Complete Main
Default : Нет
Forced : Нет

Аудио #10
Идентификатор : 11
Формат : AC-3
Формат/Информация : Audio Coding 3
Идентификатор кодека : A_AC3
Продолжительность : 2 ч. 13 м.
Вид битрейта : Постоянный
Битрейт : 448 Кбит/сек
Каналы : 6 каналов
Расположение каналов : Front: L C R, Side: L R, LFE
Частота : 48,0 КГц
Частота кадров : 31,250 кадров/сек (1536 SPF)
Битовая глубина : 16 бит
Метод сжатия : С потерями
Размер потока : 427 Мбайт (7%)
Заголовок : Японский
Язык : Japanese
ServiceKind/String : Complete Main
Default : Нет
Forced : Нет

Текст #1
Идентификатор : 12
Формат : UTF-8
Идентификатор кодека : S_TEXT/UTF8
Идентификатор кодека/Информация : UTF-8 Plain Text
Продолжительность : 2 ч. 8 м.
Битрейт : 65 бит/сек
ElementCount : 1095
Размер потока : 61,4 Кбайт (0%)
Заголовок : Ruscico
Язык : Russian
Default : Нет
Forced : Нет

Текст #2
Идентификатор : 13
Формат : UTF-8
Идентификатор кодека : S_TEXT/UTF8
Идентификатор кодека/Информация : UTF-8 Plain Text
Продолжительность : 2 ч. 7 м.
Битрейт : 45 бит/сек
ElementCount : 971
Размер потока : 42,2 Кбайт (0%)
Заголовок : Киномания
Язык : Russian
Default : Нет
Forced : Нет

Текст #3
Идентификатор : 14
Формат : UTF-8
Идентификатор кодека : S_TEXT/UTF8
Идентификатор кодека/Информация : UTF-8 Plain Text
Продолжительность : 2 ч. 8 м.
Битрейт : 57 бит/сек
ElementCount : 1043
Размер потока : 54,4 Кбайт (0%)
Заголовок : Tycoon
Язык : Russian
Default : Нет
Forced : Нет

Текст #4
Идентификатор : 15
Формат : UTF-8
Идентификатор кодека : S_TEXT/UTF8
Идентификатор кодека/Информация : UTF-8 Plain Text
Продолжительность : 2 ч. 13 м.
Битрейт : 31 бит/сек
ElementCount : 1080
Размер потока : 31,0 Кбайт (0%)
Язык : English
Default : Нет
Forced : Нет

Меню
00:00:00.000 : en:Opening Credits
00:07:44.338 : en:Prince Ashitaka's Fate
00:12:40.206 : en:The Arm of a Demon
00:14:24.673 : en:A New Friend
00:19:00.006 : en:The Wolf Gods Attack
00:21:24.340 : en:First Sight of Princess Mononoke
00:23:25.340 : en:The Tree Spirits
00:25:48.174 : en:A Magical Place
00:29:00.841 : en:Returning Home to Iron Town
00:33:06.341 : en:The Story of the Demon Boar
00:36:35.508 : en:The Inner Workings of Iron Town
00:44:28.175 : en:San Invades Iron Town
00:54:21.476 : en:The Ape Tribe
00:58:09.976 : en:The Great Spirit
01:07:54.009 : en:The Boars Want a Battle
01:12:51.343 : en:Fighting for Iron
01:18:44.010 : en:A Warning From the Wolf God
01:24:37.844 : en:A Trap Is Set
01:27:32.745 : en:Iron Town Is Under Attack
01:33:30.713 : en:Many Lives Lost
01:38:27.047 : en:Becoming a Demon
01:45:48.381 : en:A God, a Demon, and a Spirit
01:57:36.883 : en:The Great Spirit's Head
02:05:31.585 : en:Rejuvenating the Forest
02:08:38.053 : en:End Credits
02:13:29.520 : en:Chapter 26




Скачать Принцесса Мононоке через торрент https://c.radikal.ru/c11/1810/3e/53f461189f14.jpg Скачать, смотреть онлайн Принцесса Мононоке бесплантно в хорошем качестве Описание: Юный принц Аситака, убив вепря, навлек на себя смертельное проклятие. Старая знахарка предсказала ему, что только он сам способен ... 10 10 4
Info! Золотая раздача, скачанное не засчитывается.
Торрент: Зарегистрирован [2018-10-29 15:28] · скачан: 130 раз
Статус: √ проверено
Размер: 5.61 GB
Как cкачать? Как скачать Принцесса Мононоке через торрент | UTorrent

% Раздел Тема Автор DL S | L
Аниме [DVDrip, WEB-DLRip, HDrip] [ 2.17 GB ] Принцесса Мононоке / Princess Mononoke / Mononoke Hime | DUB | HDTVRip dexter lex Скачать
3 | 0
Аниме [HD 720p, 1080p] [ 7.76 GB ] Принцесса Мононоке / Mononoke Hime / Princess Mononoke | DUB | 1080p еnvy Скачать
2 | 0
Аниме [DVDrip, WEB-DLRip, HDrip] [ 1.46 GB ] Принцесса Мононоке / Princess Mononoke / Mononoke Hime | DUB | DVDRip dexter lex Скачать
1 | 0
Аниме [DVDrip, WEB-DLRip, HDrip] [ 784 MB ] Принцесса Мононоке / Princess Mononoke / Mononoke Hime | DUB | DVDRip dexter lex Скачать
1 | 0
Иностранные мультфильмы [ 2.05 GB ] Принцесса Мононоке / Mononoke-hime | | DVDRip, лицензия ppin2forenett Скачать
1 | 0

28-11-2019 20:33  


Отключить вcю реклaмy на сайте, в т.ч. и в плеере онлайн просмотра!

    Дорогой пользователь! Огромная просьба, поблагодарите релизера, оцените раздачу и оставьте свои комментарий, если Вы скачали Принцесса Мононоке через торрент бесплатно!!
    Комментировать посты могут только пользователи прошедшие не сложную регистрацию
    Показать сообщения:    


    Принцесса Мононоке через торрент
    Скачать бесплатно Принцесса Мононоке
    Принцесса Мононоке скачать торрент
    Принцесса Мононоке смотреть онлайн
    Cкачать фильм Принцесса Мононоке бесплатно
    Принцесса Мононоке скачать торрент в хорошем качестве
    Принцесса Мононоке смотреть онлайн бесплатно в хорошем качестве
    Вы не можете начинать темы
    Вы не можете отвечать на сообщения
    Вы не можете редактировать свои сообщения
    Вы не можете удалять свои сообщения
    Вы не можете голосовать в опросах
    Вы не можете прикреплять файлы к сообщениям
    Вы можете скачивать файлы
    Принцесса Мононоке / Mononoke-hime [1997 г., аниме, мультфильм, фэнтези, драма, приключения, BDRip 1080p, Дубляж+2хMVO+4хAVO+DVO] смотреть онлайн, скачать торрент picoco.icu