Anonymous, доброй ночи, присоединяйтесь к нам в Telegram!, здесь всегда актуальный адрес сайта, оперативная поддержка и многое другое!

>

5.5

iTunes

7.4

iTunes

7.9

iTunes

1

7.7

1 сезон

6.8

iTunes

7.3

1 сезон

13

6.7

1 сезон

8.3

RePack

30

ULTIMATE

pack

9.9

Лицензия

ВАЖНО

ИГРА 18+

pack

7.3

RePack

MK11

7.7

RePack

jed

7.8

RePack

fifa19

8.5

RePack

RDR2

RePack

NEED FOR SPEED™ PAYBACK

4 сезон

9 сезон

Бесстыжие 9 сезон

Все сериалы

все сериалы на PB.wtf

RePack

FAR CRY 5

Anonymous, доброй ночи, мы катастрофически не успеваем собрать деньги на оплату серверов, помогите нам пожалуйста 5,10,15р., для нас важна любая помощь . В качестве благодарности мы отключим Вам всю рекламу на сайте (укажите свой ник в строку Ваше имя)!

×
  
Magnet ссылка

Моими глазами / Сезон: 1 / Серии: 1-19 из 19 (Заур Болотаев) [2013, Триллер, мистика, WEB-DL 1080p] pb.wtf

Моими глазами через торрент pb.wtf

Размер: 14.76 GB | Добавлен: 2 года 11 мес. назад | Торрент скачан:137 раз
Смотреть онлайн Моими глазами | Скачать    Ребята, помогите собрать деньги на оплату серверов!!!

29-10-2018 18:22 Моими глазами Скачать торрент  

Моими глазамиГод выпуска: 2013
Страна: Россия
Жанр: Триллер, мистика
Продолжительность: ~ 00:24:40
Субтитры: отсутствуют

Режиссер: Заур Болотаев

rating

В ролях:

Лада Чуровская, Анастасия Стежко, Константин Быков, Татьяна Рыбинец, Мария Филькова, Лилия Разакова, Вячеслав Чепурченко, Павел Ясенок

Описание:

В секретной лаборатории, где ученые пытаются продлить жизнь и проводят эксперименты — происходит сбой. После этого в городе начинают происходить странные события. На одном из выпускных балов происходит трагедия. При очень странных обстоятельствах погибает одиннадцатиклассница Катя Чунина. А незадолго до этого без вести пропадает ее молодой человек Максим Волков. Последний раз его видели утром в больнице, из которой он сбежал, выпрыгнув из окна четвертого этажа и оставшись невредимым. Оказывается у Максима была капсула, которую он прятал. Одноклассники погибшей девушки, их родственники и друзья, следователь СКП Самарин, врач «скорой» Лиза, «индивидуалка» Вера и другие жители городка — все хотя расследовать это происшествие и все следы в конце концов ведут в тайную лабораторию.

Качество: WEB-DL 1080p
Формат: MKV

Видео: MPEG-4 AVC, ~ 5000 Кбит/с, 1920x1080
Аудио: AC3, 2 ch, 192 Кбит/с


Релиз от:
скриншот  скриншот  скриншот  скриншот  

Общее
Уникальный идентификатор : 197291889983896367099831655758463329332 (0x946D092ECEAFF138AC05285E05A96434)
Полное имя : D:\Moimi.glazami.2013.WEB-DL.(1080p).ExKinoRay\Moimi.glazami.(01.seriya).2013.WEB-DL.(1080p).ExKinoRay.mkv
Формат : Matroska
Версия формата : Version 2
Размер файла : 897 Мбайт
Продолжительность : 25 м. 30 с.
Режим общего битрейта : Постоянный
Общий поток : 4916 Кбит/сек
Название фильма : Moimi.glazami.(01.seriya).2013.WEB-DL.(1080p).ExKinoRay
Дата кодирования : UTC 2018-10-28 23:54:25
Программа кодирования : mkvmerge v5.8.0 ('No Sleep / Pillow') built on Sep 2 2012 15:37:04
Библиотека кодирования : libebml v1.2.3 + libmatroska v1.3.0

Видео
Идентификатор : 1
Формат : AVC
Формат/Информация : Advanced Video Codec
Профиль формата : Baseline@L4
Параметр CABAC формата : Нет
Параметр RefFrames формата : 4 кадра
Параметр GOP формата : M=1, N=50
Идентификатор кодека : V_MPEG4/ISO/AVC
Продолжительность : 25 м. 30 с.
Вид битрейта : Постоянный
Битрейт : 4627 Кбит/сек
Номинальный битрейт : 5000 Кбит/сек
Ширина : 1920 пикселей
Высота : 1080 пикселей
Соотношение сторон : 16:9
Режим частоты кадров : Постоянный
Частота кадров : 25,000 кадров/сек
Стандарт вещания : PAL
Цветовое пространство : YUV
Субдискретизация насыщенности : 4:2:0
Битовая глубина : 8 бит
Тип развёртки : Прогрессивная
Бит/(Пиксели*Кадры) : 0.089
Размер потока : 844 Мбайт (94%)
Язык : Russian
Default : Да
Forced : Нет
Цветовой диапазон : Limited
Основные цвета : BT.709
Характеристики трансфера : BT.709
Коэффициенты матрицы : BT.709

Аудио
Идентификатор : 2
Формат : AC-3
Формат/Информация : Audio Coding 3
Расширение режима : CM (complete main)
Параметр Endianness формата : Big
Идентификатор кодека : A_AC3
Продолжительность : 25 м. 30 с.
Вид битрейта : Постоянный
Битрейт : 192 Кбит/сек
Каналы : 2 канала
Расположение каналов : Front: L R
Частота : 48,0 КГц
Частота кадров : 31,250 кадров/сек (1536 spf)
Метод сжатия : С потерями
Размер потока : 35,0 Мбайт (4%)
Язык : Russian
Default : Да
Forced : Нет

pb.wtf



Скачать Моими глазами через торрент http://s020.radikal.ru/i709/1301/40/73dcbb511cae.png Скачать, смотреть онлайн Моими глазами бесплантно в хорошем качестве Описание: В секретной лаборатории, где ученые пытаются продлить жизнь и проводят эксперименты — происходит сбой. После этого в городе ... 10 10 2
Торрент: Зарегистрирован [2018-10-29 18:22] · скачан: 137 раз
Статус: √ проверено
Размер: 14.76 GB
Как cкачать? Как скачать Моими глазами через торрент | UTorrent

% Раздел Тема Автор DL S | L
Наши сериалы [ 4.93 GB ] Моими глазами / Сезон: 1 Серии: 1-19 из 19 [2013 . WEBRip] akcent Скачать
1 | 0


Последний раз редактировалось: bober100 (2018-10-30 15:52), всего редактировалось 1 раз

28-11-2019 20:33  

Отключить всю рекламу на сайте

29-10-2018 18:56 Моими глазами Скачать торрент  

второй сезон так и не вышел((pb.wtf



    Дорогой пользователь! Огромная просьба, поблагодарите релизера, оцените раздачу и оставьте свои комментарий, если Вы скачали Моими глазами через торрент бесплатно!
    Комментировать посты могут только пользователи прошедшие не сложную регистрацию
    Показать сообщения:    

    Моими глазами через торрент
    Скачать бесплатно Моими глазами
    Моими глазами скачать торрент
    Моими глазами смотреть онлайн
    Cкачать фильм Моими глазами бесплатно
    Моими глазами скачать торрент в хорошем качестве
    Моими глазами смотреть онлайн бесплатно в хорошем качестве


    Вы не можете начинать темы
    Вы не можете отвечать на сообщения
    Вы не можете редактировать свои сообщения
    Вы не можете удалять свои сообщения
    Вы не можете голосовать в опросах
    Вы не можете прикреплять файлы к сообщениям
    Вы можете скачивать файлы