Ссылка на приватное зеркало нашего сайта всего за 1$. Внимание количество ограничено!!!

2 сезон

iTunes

1 сезон

1

iTunes

iTunes

iTunes

1 сезон

RePack

30

ИГРА 18+

pack

ВАЖНО

!!Акция!!

Alien_RageХит недели

RePack

MK11
pack

Забери бонус

RePack

jed

!!Акция!!

Alien_Rage

RePack

fifa19

RePack

Assassins Creed: Odyssey

RePack

NEED FOR SPEED™ PAYBACK

4 сезон

9 сезон

Бесстыжие 9 сезон

Все сериалы

все сериалы на PB.wtf

RePack

FAR CRY 5
  

Мажор / Сезон: 3 / Серии: 1-16 из 16 (Николай Булыгин, Максим Полинский) [2018 г., Драма,Криминал, WEB-DL 720p] pb.wtf

Мажор через торрент pb.wtf

Размер: 16.79 GB | Добавлен: 1 год 11 мес. назад | Торрент скачан:108 раз
Скачать  

30-10-2018 08:08 Мажор Скачать торрент  

Мажор / Сезон: 3 / Серии: 1-16 из 16
Год выпуска: 2018
Страна: Россия
Жанр: Драма,Криминал
Продолжительность: 00:48:00
Субтитры: Отсутствуют

Режиссер: Николай Булыгин, Максим Полинский
Продюссер: Александр Цекало, Иван Самохвалов, Александра Ремизова,
Сценарий: Сергей Калужанов, Константин Галдаев

rating

В ролях: Павел Прилучный, Карина Разумовская, Дмитрий Шевченко, Денис Шведов, Александр Обласов, Никита Панфилов, Дана Абызова, Олег Гаас, Анна Цуканова-Котт, Любовь Аксёнова

Описание: Игорь Соколовский давно перестал быть тем Мажором, для которого служба в полиции — вынужденная «ссылка». Давняя смерть матери и недавнее убийство отца — два события, определившие его дальнейшую жизнь — могут быть раскрыты во многом благодаря этой службе. Мажор растет как профессионал, ежедневно работая над раскрытием различных преступлений, но расследование главной драмы его жизни ставит перед ним новые задачи. Чтобы отомстить за смерть отца, он в совершенстве овладел бизнес-стратегиями, чтобы найти и наказать убийцу матери, ему нужно освоить нечто совершенно новое. И самое сложное при этом — остаться в рамках закона. В поисках преступника Мажор окажется у черты, но останутся ли у него законные средства, чтобы наказать убийцу?

Качество: WEB-DL 720p
Формат: MKV
Видео кодек: MPEG4
Аудио кодек: AC3
Видео: AVC 3024 Кбит/сек,1280x720, в 25,000 кадров/сек
Аудио#1: AC3 192 Кбит/сек,48,0 КГц, 2 канала

скриншот   скриншот   скриншот   скриншот  
скриншот   скриншот   скриншот   скриншот   скриншот   скриншот  

Общее
Уникальный идентификатор : 190147233339406819352729361375847935265 (0x8F0D0669E0DA04D5B7F80DB2C9AE6D21)
Полное имя : D:\Фильмы с PIRATBIT\Mazhor.s03.WEB-DL 720p.Files-x\01. Mazhor.s03.WEB-DL 720p.Files-x.mkv
Формат : Matroska
Версия формата : Version 2
Размер файла : 1,11 Гбайт
Продолжительность : 48 м.
Режим общего битрейта : Постоянный
Общий поток : 3281 Кбит/сек
Дата кодирования : UTC 2018-10-29 23:11:18
Программа кодирования : mkvmerge v7.8.0 ('River Man') 32bit built on Apr 3 2015 12:11:22
Библиотека кодирования : libebml v1.3.1 + libmatroska v1.4.2

Видео
Идентификатор : 1
Формат : AVC
Формат/Информация : Advanced Video Codec
Профиль формата : High@L4.1
Параметр CABAC формата : Да
Параметр ReFrames формата : 4 кадра
Идентификатор кодека : V_MPEG4/ISO/AVC
Продолжительность : 48 м.
Вид битрейта : Постоянный
Битрейт : 3024 Кбит/сек
Номинальный битрейт : 3200 Кбит/сек / 3200 Кбит/сек
Ширина : 1280 пикселей
Высота : 720 пикселей
Соотношение сторон : 16:9
Режим частоты кадров : Постоянный
Частота кадров : 25,000 кадров/сек
Цветовое пространство : YUV
Субдискретизация насыщенности : 4:2:0
Битовая глубина : 8 бит
Тип развёртки : Прогрессивная
Бит/(Пиксели*Кадры) : 0.131
Размер потока : 1,02 Гбайт (92%)
Библиотека кодирования : x264 core 148
Настройки программы : cabac=1 / ref=2 / deblock=1:0:0 / analyse=0x3:0x113 / me=hex / subme=6 / psy=1 / psy_rd=1.00:0.00 / mixed_ref=1 / me_range=16 / chroma_me=1 / trellis=1 / 8x8dct=1 / cqm=0 / deadzone=21,11 / fast_pskip=1 / chroma_qp_offset=-2 / threads=1 / lookahead_threads=1 / sliced_threads=0 / nr=0 / decimate=1 / interlaced=0 / bluray_compat=0 / constrained_intra=0 / bframes=3 / b_pyramid=2 / b_adapt=1 / b_bias=0 / direct=1 / weightb=1 / open_gop=0 / weightp=1 / keyint=250 / keyint_min=25 / scenecut=0 / intra_refresh=0 / rc_lookahead=30 / rc=cbr / mbtree=1 / bitrate=3200 / ratetol=1.0 / qcomp=0.60 / qpmin=0 / qpmax=69 / qpstep=4 / vbv_maxrate=3200 / vbv_bufsize=1600 / nal_hrd=cbr / filler=1 / ip_ratio=1.40 / aq=1:1.00
Default : Да
Forced : Нет

Аудио
Идентификатор : 2
Формат : AC-3
Формат/Информация : Audio Coding 3
Расширение режима : CM (complete main)
Параметр Endianness формата : Big
Идентификатор кодека : A_AC3
Продолжительность : 48 м.
Вид битрейта : Постоянный
Битрейт : 192 Кбит/сек
Каналы : 2 канала
Расположение каналов : Front: L R
Частота : 48,0 КГц
Частота кадров : 31,250 кадров/сек (1536 spf)
Метод сжатия : С потерями
Задержка видео : -61 мс.
Размер потока : 66,4 Мбайт (6%)
Default : Да
Forced : Нет

Когда раздача ведётся путём добавления новых серий, при каждом добавлении создётся новый торрент. Чтобы начать докачку новой серии, пользователям необходимо сделать следующее:
(1) остановить скачивание,
(2) удалить старый торрент у себя из клиента (старые серии удалять не надо),
(3) скачать новый торрент и запустить его у себя в клиенте вместо старого, при этом указать клиенту путь в старую папку, куда и должно происходить скачивание новых серий.
Ваш клиент при этом должен произвести хеширование (проверку) старой папки (если не производит сам - помогите ему сделать это), и будет докачивать только те серии, которых у вас ещё нет. Старые серии при этом не удаляются, а продолжают раздаваться!
Eсли вы уже удалили старые серии, то предотвратить повторную закачку старых серий можно, отжав галочку в соответсвующих местах при запуске нового торрента. По возможности, желательно не удалять старые серии как можно дольше, чтобы релизёр не столько продолжал раздавать старые серии, а смог сконцентрироваться на новых.

pb.wtf



Скачать Мажор через торрент http://pic1.kartinco.top/images/11/rmt2a.jpg Скачать фильм Мажор через торрент бесплантно в хорошем качестве Описание: Игорь Соколовский давно перестал быть тем Мажором, для которого служба в полиции — вынужденная «ссылка». Давняя смерть матери и ... 9.3 10 18
Info! Золотая раздача, скачанное не засчитывается.
Торрент: Зарегистрирован [2018-11-16 20:27] · скачан: 108 раз
Статус: √ проверено
Размер: 16.79 GB
Как cкачать? Как скачать Мажор через торрент | qTorrent

% Раздел Тема Автор DL S | L
Зарубежные сериалы [ 49.57 GB ] Форс-мажоры / Костюмы / Suits / Сезон: 3 / Серии: 1-16 из 16 [2013 BDRip 1080p] MVO [TVShows] bober100 Скачать
1 | 0
Наши сериалы [ 34.01 GB ] Мажор / Сезон: 3 / Серии: 1-16 из 16 [2018 HDTV 1080i] bober100 Скачать
1 | 0
Наши сериалы [ 8.71 GB ] Мажор / Сезон: 3 / Серии: 1-16 из 16 [2018 WEB-DLRip] Sanekzade1989 Скачать
1 | 0
Наши сериалы [ 9.89 GB ] Мажор / Сезон: 3 / Серии: 1-16 из 16 [2018 WEB-DLRip-AVC] ExKinoRay Enigma2010 Скачать
3 | 0
Наши сериалы [ 9.91 GB ] Мажор / Сезон-3 / Серии: 1-16 из 16 [2018 SATRip-AVC] aleksan55 Скачать
2 | 0
Наши сериалы [ 19.32 GB ] Мажор / Сезон: 3 / Серии: 1-16 из 16 [2018 HDTVRip 720p] bober100 Скачать
1 | 0
Наши сериалы [ 10.36 GB ] Мажор / Сезон: 3 / Серии: 1-16 из 16 [2018 HDTVRip] bober100 Скачать
1 | 0


Последний раз редактировалось: Sanekzade1989 (2018-11-16 20:27), всего редактировалось 7 раз(а)

28-11-2019 20:33  

Отключить всю рекламу на сайте

31-10-2018 11:08 Мажор Скачать торрент  

Sanekzade1989,

Цитата:

1. Обложка

2.1 Размер обложки не должен превышать 700*700 пикселей (небольшие отклонения от нормы возможны на усмотрение модератора).
2.2 Размер обложки должен быть не меньше 200*200 пикселей.

pb.wtf



    Дорогой пользователь! Огромная просьба, поблагодарите релизера, оцените раздачу и оставьте свои комментарий, если Вы скачали Мажор через торрент бесплатно! Внесите свою лепту в развитие PiratBit!
    Комментировать посты могут только пользователи прошедшие не сложную регистрацию
    Показать сообщения:    

    Мажор через торрент
    Скачать бесплатно Мажор
    Мажор скачать торрент
    Мажор смотреть онлайн
    Cкачать фильм Мажор бесплатно
    Мажор скачать торрент в хорошем качестве
    Мажор смотреть онлайн бесплатно в хорошем качестве


    Вы не можете начинать темы
    Вы не можете отвечать на сообщения
    Вы не можете редактировать свои сообщения
    Вы не можете удалять свои сообщения
    Вы не можете голосовать в опросах
    Вы не можете прикреплять файлы к сообщениям
    Вы можете скачивать файлы