Ссылка на приватное зеркало всего за 1$. Внимание количество ограничено!!!

OK

1+1

iTunes

мы

OK

1

WEB-DLRip

Джокер

Пифагор

Ведьмак / The Witcher сериал

iTunes

ПШазам

ОК

Оно 2

iTunes

30
pack

Вам бонус

ВАЖНО

!!Акция!!

Alien_RageХит недели

RePack

Resident Evil 21

ИГРА 18+

pack

RePack

jed

RePack

fifa19

RePack

Assassins Creed: Odyssey

RePack

NEED FOR SPEED™ PAYBACK

4 сезон

9 сезон

Бесстыжие 9 сезон

Все сериалы

все сериалы на PB.wtf

RePack

FAR CRY 5
  

Мясная лавка / The Griddle House (Пол Томберелло) [2018, драма, WEB-DL 720p] MVO ["Синема УС"] pb.wtf

Мясная лавка через торрент pb.wtf

Размер: 3 GB | Добавлен: 1 год 2 мес. назад | Торрент скачан:9 раз
Скачать  

30-10-2018 11:38 Мясная лавка Скачать торрент  

Мясная лавка / The Griddle HouseГод выпуска: 2018
Страна: США
Жанр: драма
Продолжительность: 01:27:38
Перевод: Любительский (многоголосый) | "Синема УС"
Субтитры: отсутствуют

Режиссер: Пол Томберелло

rating

В ролях:

Эмбер Бенсон, Харизма Карпентер, Клэр Крамер, Мигель А. Нуньес мл., Пол Родригес, Уильям Сэндерсон, Алекс Шеффер, Коннор Дель Рио, Джошуа Чайлдз, Джереми Чайлдз

Описание:

История о подростке, Джеке Бенсоне. Джек хочет найти свою родную мать и выясняет, что она является завсегдатаем местного кафе "Мясная лавка", и он отправляется туда в канун Нового года.

Качество: WEB-DL 720p
Формат: MKV

Видео: h.264, 4 514 Кбит/с, 1280x720
Аудио#1: Русский, (AC3, 2 ch, 384 Кбит/с)
скриншот  скриншот  скриншот  

Общее
Уникальный идентификатор : 244874074605956237888471273916264810178 (0xB83908028A7EAE0883BF74ED03DF06C2)
Полное имя : D:\The.Griddle.House.2O18.P.WEB-DL.72Op.mkv
Формат : Matroska
Версия формата : Version 2
Размер файла : 3,00 Гбайт
Продолжительность : 1 ч. 27 м.
Режим общего битрейта : Переменный
Общий поток : 4900 Кбит/сек
Дата кодирования : UTC 2018-10-29 18:30:54
Программа кодирования : mkvmerge v8.3.0 ('Over the Horizon') 64bit
Библиотека кодирования : libebml v1.3.1 + libmatroska v1.4.2

Видео
Идентификатор : 1
Формат : AVC
Формат/Информация : Advanced Video Codec
Профиль формата : High@L4.1
Параметр CABAC формата : Да
Параметр RefFrames формата : 4 кадра
Идентификатор кодека : V_MPEG4/ISO/AVC
Продолжительность : 1 ч. 27 м.
Вид битрейта : Переменный
Битрейт : 4514 Кбит/сек
Максимальный битрейт : 5000 Кбит/сек
Ширина : 1280 пикселей
Высота : 720 пикселей
Соотношение сторон : 16:9
Режим частоты кадров : Постоянный
Частота кадров : 23,976 (24000/1001) кадра/сек
Стандарт вещания : Component
Цветовое пространство : YUV
Субдискретизация насыщенности : 4:2:0
Битовая глубина : 8 бит
Тип развёртки : Прогрессивная
Бит/(Пиксели*Кадры) : 0.200
Размер потока : 2,70 Гбайт (90%)
Default : Да
Forced : Нет
Цветовой диапазон : Limited
Основные цвета : BT.709
Характеристики трансфера : BT.709
Коэффициенты матрицы : BT.709

Аудио
Идентификатор : 2
Формат : AC-3
Формат/Информация : Audio Coding 3
Расширение режима : CM (complete main)
Параметр Endianness формата : Big
Идентификатор кодека : A_AC3
Продолжительность : 1 ч. 27 м.
Вид битрейта : Постоянный
Битрейт : 384 Кбит/сек
Каналы : 2 канала
Расположение каналов : Front: L R
Частота : 48,0 КГц
Частота кадров : 31,250 кадров/сек (1536 spf)
Метод сжатия : С потерями
Размер потока : 241 Мбайт (8%)
Default : Да
Forced : Нет

pb.wtf



Скачать Мясная лавка через торрент https://d.radikal.ru/d33/1810/e7/2cea25b9ee67.jpg Скачать фильм Мясная лавка через торрент бесплантно в хорошем качестве Описание: История о подростке, Джеке Бенсоне. Джек хочет найти свою родную мать и выясняет, что она является завсегдатаем местного кафе ... 10 10 2
Торрент: Зарегистрирован [2018-10-30 11:38] · скачан: 9 раз
Статус: T временная
Размер: 3 GB
Как cкачать? Как скачать Мясная лавка через торрент | qTorrent

% Раздел Тема Автор DL S | L
T Фильмы (мультфильмы) cо спонсором показа (Новинки AVI/MKV) [ 1.37 GB ] Мясная лавка / The Griddle House [2018 WEB-DLRip] MVO ["Синема УС"] bober100 Скачать
1 | 0

28-11-2019 20:33  

Отключить всю рекламу на сайте

31-10-2018 17:15 Мясная лавка Скачать торрент  

Походу понос несусветный... пропущу мимо.pb.wtf



    Дорогой пользователь! Огромная просьба, поблагодарите релизера, оцените раздачу и оставьте свои комментарий, если Вы скачали Мясная лавка через торрент бесплатно! Внесите свою лепту в развитие PiratBit!
    Комментировать посты могут только пользователи прошедшие не сложную регистрацию
    Показать сообщения:    

    Мясная лавка через торрент
    Скачать бесплатно Мясная лавка
    Мясная лавка скачать торрент
    Мясная лавка смотреть онлайн
    Cкачать фильм Мясная лавка бесплатно
    Мясная лавка скачать торрент в хорошем качестве
    Мясная лавка смотреть онлайн бесплатно в хорошем качестве


    Вы не можете начинать темы
    Вы не можете отвечать на сообщения
    Вы не можете редактировать свои сообщения
    Вы не можете удалять свои сообщения
    Вы не можете голосовать в опросах
    Вы не можете прикреплять файлы к сообщениям
    Вы можете скачивать файлы