Ссылка на приватное зеркало всего за 1$. Внимание количество ограничено!!!

OK

1+1

iTunes

мы

OK

1

WEB-DLRip

Джокер

Пифагор

Ведьмак / The Witcher сериал

Лицензия

ПШазам

ОК

Оно 2

iTunes

30
pack

Вам бонус

ВАЖНО

!!Акция!!

Alien_RageХит недели

RePack

Resident Evil 21

ИГРА 18+

pack

RePack

jed

RePack

fifa19

RePack

Assassins Creed: Odyssey

RePack

NEED FOR SPEED™ PAYBACK

4 сезон

9 сезон

Бесстыжие 9 сезон

Все сериалы

все сериалы на PB.wtf

RePack

FAR CRY 5
  

Тэта-тёлка / The Theta Girl (Крис Бикел) [2017, Ужасы, WEB-DL 720p] MVO [КОЛОБОК] pb.wtf

Тэта-тёлка через торрент pb.wtf

Размер: 3.44 GB | Добавлен: 1 год 2 мес. назад | Торрент скачан:35 раз
Скачать  

30-10-2018 12:17 Тэта-тёлка Скачать торрент  

Тэта-тёлка / The Theta GirlГод выпуска: 2017
Страна: США
Жанр: Ужасы
Продолжительность: 01:39:54
Перевод: Любительский (многоголосый) | КОЛОБОК
Субтитры: отсутствуют

Режиссер: Крис Бикел

rating

В ролях:

Виктория Элизабет Донофрио, Шейн Силман, Дерел Д. Дойв, Майк Амасон, Крис Бикел, Аарон Бломберг, Кеенеф Бриери, Шон Делл Корли, Куинн Диограции

Описание:

Бесшабашная оторва Гейси при помощи наркотика "тэта" помогает подругам из панк-рок группы "Фонд Истины" заводить толпу, параллельно расширяя сознание людей и открывая им глаза на окружающую реальность, за зыбкой гранью которой, в подпространственном кармане, обитает некая Сущность - то ли бог, то ли дьявол, а может ни то и ни другое.

Качество: WEB-DL 720p
Формат: MKV

Видео: h.264,4 543 Кбит/с, 1280x544
Аудио#1: Русский, (AC3, 2 ch, 384 Кбит/с)
скриншот  скриншот  скриншот  

Общее
Уникальный идентификатор : 223636232084903303319201846271177565374 (0xA83EC587B93160378799B76E58C2A4BE)
Полное имя : D:\The.Theta.Girl.2O17.Pk.WEB-DL.72Op.mkv
Формат : Matroska
Версия формата : Version 2
Размер файла : 3,44 Гбайт
Продолжительность : 1 ч. 39 м.
Режим общего битрейта : Переменный
Общий поток : 4929 Кбит/сек
Дата кодирования : UTC 2018-10-29 19:55:12
Программа кодирования : mkvmerge v8.3.0 ('Over the Horizon') 64bit
Библиотека кодирования : libebml v1.3.1 + libmatroska v1.4.2

Видео
Идентификатор : 1
Формат : AVC
Формат/Информация : Advanced Video Codec
Профиль формата : High@L4.1
Параметр CABAC формата : Да
Параметр RefFrames формата : 4 кадра
Идентификатор кодека : V_MPEG4/ISO/AVC
Продолжительность : 1 ч. 39 м.
Вид битрейта : Переменный
Битрейт : 4543 Кбит/сек
Максимальный битрейт : 5000 Кбит/сек
Ширина : 1280 пикселей
Высота : 544 пикселя
Соотношение сторон : 2,35:1
Режим частоты кадров : Постоянный
Частота кадров : 23,976 (24000/1001) кадра/сек
Стандарт вещания : Component
Цветовое пространство : YUV
Субдискретизация насыщенности : 4:2:0
Битовая глубина : 8 бит
Тип развёртки : Прогрессивная
Бит/(Пиксели*Кадры) : 0.266
Размер потока : 3,10 Гбайт (90%)
Default : Да
Forced : Нет
Цветовой диапазон : Limited
Основные цвета : BT.709
Характеристики трансфера : BT.709
Коэффициенты матрицы : BT.709

Аудио
Идентификатор : 2
Формат : AC-3
Формат/Информация : Audio Coding 3
Расширение режима : CM (complete main)
Параметр Endianness формата : Big
Идентификатор кодека : A_AC3
Продолжительность : 1 ч. 39 м.
Вид битрейта : Постоянный
Битрейт : 384 Кбит/сек
Каналы : 2 канала
Расположение каналов : Front: L R
Частота : 48,0 КГц
Частота кадров : 31,250 кадров/сек (1536 spf)
Метод сжатия : С потерями
Размер потока : 274 Мбайт (8%)
Default : Да
Forced : Нет

pb.wtf



Скачать Тэта-тёлка через торрент https://d.radikal.ru/d35/1810/d4/558f254c2766.jpg Скачать фильм Тэта-тёлка через торрент бесплантно в хорошем качестве Описание: Бесшабашная оторва Гейси при помощи наркотика "тэта" помогает подругам из панк-рок группы "Фонд Истины" заводить толпу, ... 8.7 10 7
Торрент: Зарегистрирован [2018-10-30 12:17] · скачан: 35 раз
Статус: T временная
Размер: 3.44 GB
Как cкачать? Как скачать Тэта-тёлка через торрент | qTorrent

% Раздел Тема Автор DL S | L
T Фильмы (мультфильмы) cо спонсором показа (Новинки AVI/MKV) [ 1.37 GB ] Тэта-тёлка / The Theta Girl [2017 WEB-DLRip] MVO [КОЛОБОК] bober100 Скачать
1 | 0

28-11-2019 20:33  

Отключить всю рекламу на сайте

    Дорогой пользователь! Огромная просьба, поблагодарите релизера, оцените раздачу и оставьте свои комментарий, если Вы скачали Тэта-тёлка через торрент бесплатно! Внесите свою лепту в развитие PiratBit!
    Комментировать посты могут только пользователи прошедшие не сложную регистрацию
    Показать сообщения:    

    Тэта-тёлка через торрент
    Скачать бесплатно Тэта-тёлка
    Тэта-тёлка скачать торрент
    Тэта-тёлка смотреть онлайн
    Cкачать фильм Тэта-тёлка бесплатно
    Тэта-тёлка скачать торрент в хорошем качестве
    Тэта-тёлка смотреть онлайн бесплатно в хорошем качестве


    Вы не можете начинать темы
    Вы не можете отвечать на сообщения
    Вы не можете редактировать свои сообщения
    Вы не можете удалять свои сообщения
    Вы не можете голосовать в опросах
    Вы не можете прикреплять файлы к сообщениям
    Вы можете скачивать файлы