Ссылка на приватное зеркало всего за 1$. Внимание количество ограничено!!!

OK

1+1

iTunes

мы

OK

1

WEB-DLRip

Джокер

Пифагор

Ведьмак / The Witcher сериал

Лицензия

ПШазам

ОК

Оно 2

iTunes

30
pack

Вам бонус

ВАЖНО

!!Акция!!

Alien_RageХит недели

RePack

Resident Evil 21

ИГРА 18+

pack

RePack

jed

!!Акция!!

Alien_Rage

RePack

fifa19

RePack

Assassins Creed: Odyssey

RePack

NEED FOR SPEED™ PAYBACK

4 сезон

9 сезон

Бесстыжие 9 сезон

Все сериалы

все сериалы на PB.wtf

RePack

FAR CRY 5
  

Шпион, который меня кинул / The Spy Who Dumped Me (Сюзанна Фогель) [2018 г., боевик, комедия, приключения, BDRip 1080p, HEVC Дубляж (iTunes)] pb.wtf

Шпион, который меня кинул через торрент pb.wtf

Размер: 6.4 GB | Добавлен: 1 год 2 мес. назад | Торрент скачан:419 раз
Скачать  

30-10-2018 19:06 Шпион, который меня кинул Скачать торрент  

Шпион который меня кинул / The Spy Who Dumped Me
Год выпуска: 2018
Страна: США, Канада
Жанр: боевик, комедия, приключения
Продолжительность: 01:57:01
Перевод: Дубляж (iTunes)
Субтитры: английские

Режиссер: Сюзанна Фогель

rating

В ролях: Мила Кунис, Кейт МакКиннон, Сэм Хьюэн, Джастин Теру, Джиллиан Андерсон

Описание: Одри и Морган, лучшие подруги из Лос-Анджелеса, неожиданно оказываются в эпицентре международного заговора, когда бывший Одри заявляется к ней с толпой идущих по следу кровожадных убийц. Удивляясь сами себе, девушки берутся за нелегкое дело спасения мира. Их ждет полная опасностей — и киллеров — шпионская гонка по всей Европе, где на пути им встречается очень подозрительный, но такой обаятельный британский агент…
Доп. информация: -
H.265/HEVC (High Efficiency Video Coding) - это новый стандарт кодирования видео.
- Стандарт H.265/HEVC является логическим продолжением стандарта
H.264/AVC (Advanced Video Coding), и характеризуется более эффективными
алгоритмами сжатия, а также поддержкой высокого разрешения вплоть до 8K UHD
(8192x4320). Первая версия стандарта H.265 была опубликована в начале 2013 года.
- Рипы в фомате HEVC поддерживается не всеми аппаратными проигрывателями.
- Для корректного воспроизведения может потребоваться обновление ПО.
- Владельцам несовместимого железа просьба не беспокоить,
есть альтернативные релизы.
Качество: BDRip 1080p
Формат: MKV
Видео кодек: H.265
Аудио кодек: AC3
Видео: 1920x800, ~6812 Kbps
Аудио#1: AC3, 6 ch, 384 Kbps - Дублированный
Аудио#2: AC3, 6 ch, 640 Kbps - Английский
Релиз от: Immortel

Общее
Уникальный идентификатор : 117912847732593571834586248239231069383 (0x58B5303CCAD6A190D88723DCD538ECC7)
Полное имя : F:\РАЗДАЧИ\the spy who dumped me hevc 1080p.mkv
Формат : Matroska
Версия формата : Version 4 / Version 2
Размер файла : 6,40 Гбайт
Продолжительность : 1 ч. 57 м.
Общий поток : 7833 Кбит/сек
Название фильма : The Spy Who Dumped Me
Дата кодирования : UTC 2018-10-26 13:08:22
Программа кодирования : mkvmerge v27.0.0 ('Metropolis') 64-bit
Библиотека кодирования : libebml v1.3.6 + libmatroska v1.4.9

Видео
Идентификатор : 1
Формат : HEVC
Формат/Информация : High Efficiency Video Coding
Профиль формата : Main@L4@High
Идентификатор кодека : V_MPEGH/ISO/HEVC
Продолжительность : 1 ч. 56 м.
Битрейт : 6812 Кбит/сек
Ширина : 1920 пикселей
Высота : 800 пикселей
Соотношение сторон : 2,40:1
Режим частоты кадров : Постоянный
Частота кадров : 23,976 (24000/1001) кадра/сек
Цветовое пространство : YUV
Субдискретизация насыщенности : 4:2:0
Битовая глубина : 8 бит
Бит/(Пиксели*Кадры) : 0.185
Размер потока : 5,56 Гбайт (87%)
Заголовок : The Spy Who Dumped Me (2018) - Encoded by Immortel
Библиотека кодирования : x265 2.8+66-88ee12651e30:[Windows][MSVC 1915][64 bit] 8bit+10bit+12bit
Настройки программы : cpuid=1111039 / frame-threads=2 / numa-pools=4 / wpp / pmode / no-pme / no-psnr / no-ssim / log-level=2 / input-csp=1 / input-res=1920x800 / interlace=0 / total-frames=168217 / level-idc=40 / high-tier=1 / uhd-bd=0 / ref=5 / no-allow-non-conformance / no-repeat-headers / annexb / aud / hrd / info / hash=0 / no-temporal-layers / no-open-gop / min-keyint=24 / keyint=240 / gop-lookahead=0 / bframes=6 / b-adapt=2 / b-pyramid / bframe-bias=0 / rc-lookahead=60 / lookahead-slices=1 / scenecut=40 / radl=0 / no-intra-refresh / ctu=64 / min-cu-size=8 / no-rect / no-amp / max-tu-size=32 / tu-inter-depth=1 / tu-intra-depth=4 / limit-tu=0 / rdoq-level=0 / dynamic-rd=0.00 / no-ssim-rd / signhide / no-tskip / nr-intra=0 / nr-inter=0 / no-constrained-intra / no-strong-intra-smoothing / max-merge=5 / limit-refs=1 / no-limit-modes / me=2 / subme=4 / merange=57 / temporal-mvp / weightp / weightb / no-analyze-src-pics / deblock=0:0 / no-sao / no-sao-non-deblock / rd=4 / no-early-skip / no-rskip / no-fast-intra / no-tskip-fast / no-cu-lossless / no-b-intra / no-splitrd-skip / rdpenalty=0 / psy-rd=1.00 / psy-rdoq=0.00 / no-rd-refine / no-lossless / cbqpoffs=0 / crqpoffs=0 / rc=crf / crf=19.0 / qcomp=0.60 / qpstep=4 / stats-write=0 / stats-read=0 / vbv-maxrate=30000 / vbv-bufsize=30000 / vbv-init=0.9 / crf-max=0.0 / crf-min=0.0 / ipratio=1.40 / pbratio=1.30 / aq-mode=2 / aq-strength=1.00 / no-cutree / zone-count=0 / no-strict-cbr / qg-size=64 / no-rc-grain / qpmax=69 / qpmin=0 / no-const-vbv / sar=1 / overscan=0 / videoformat=5 / range=0 / colorprim=1 / transfer=1 / colormatrix=1 / chromaloc=0 / display-window=0 / max-cll=0,0 / min-luma=0 / max-luma=255 / log2-max-poc-lsb=8 / vui-timing-info / vui-hrd-info / slices=1 / no-opt-qp-pps / no-opt-ref-list-length-pps / no-multi-pass-opt-rps / scenecut-bias=0.05 / no-opt-cu-delta-qp / no-aq-motion / no-hdr / no-hdr-opt / no-dhdr10-opt / no-idr-recovery-sei / analysis-reuse-level=5 / scale-factor=0 / refine-intra=0 / refine-inter=0 / refine-mv=0 / no-limit-sao / ctu-info=0 / no-lowpass-dct / refine-mv-type=0 / copy-pic=1 / max-ausize-factor=1.0 / no-dynamic-refine / no-single-sei
Default : Да
Forced : Да
Цветовой диапазон : Limited
Основные цвета : BT.709
Характеристики трансфера : BT.709
Коэффициенты матрицы : BT.709

Аудио #1
Идентификатор : 2
Формат : AC-3
Формат/Информация : Audio Coding 3
Идентификатор кодека : A_AC3
Продолжительность : 1 ч. 57 м.
Вид битрейта : Постоянный
Битрейт : 384 Кбит/сек
Каналы : 6 каналов
Расположение каналов : Front: L C R, Side: L R, LFE
Частота : 48,0 КГц
Частота кадров : 31,250 кадров/сек (1536 SPF)
Битовая глубина : 16 бит
Метод сжатия : С потерями
Размер потока : 321 Мбайт (5%)
Заголовок : Dubbing (iTunes)
Язык : Russian
ServiceKind/String : Complete Main
Default : Да
Forced : Да

Аудио #2
Идентификатор : 3
Формат : AC-3
Формат/Информация : Audio Coding 3
Идентификатор кодека : A_AC3
Продолжительность : 1 ч. 56 м.
Вид битрейта : Постоянный
Битрейт : 640 Кбит/сек
Каналы : 6 каналов
Расположение каналов : Front: L C R, Side: L R, LFE
Частота : 48,0 КГц
Частота кадров : 31,250 кадров/сек (1536 SPF)
Битовая глубина : 16 бит
Метод сжатия : С потерями
Размер потока : 535 Мбайт (8%)
Заголовок : Original
Язык : English
ServiceKind/String : Complete Main
Default : Нет
Forced : Нет

Текст
Идентификатор : 4
Формат : UTF-8
Идентификатор кодека : S_TEXT/UTF8
Идентификатор кодека/Информация : UTF-8 Plain Text
Продолжительность : 1 ч. 48 м.
Битрейт : 79 бит/сек
ElementCount : 1958
Размер потока : 63,1 Кбайт (0%)
Язык : English
Default : Нет
Forced : Нет

Меню
00:00:00.000 : en:00:00:00.000
00:07:32.409 : en:00:07:32.409
00:14:08.096 : en:00:14:08.096
00:20:44.534 : en:00:20:44.534
00:28:28.038 : en:00:28:28.038
00:35:15.862 : en:00:35:15.862
00:41:22.438 : en:00:41:22.438
00:47:24.675 : en:00:47:24.675
00:52:19.135 : en:00:52:19.135
01:02:37.295 : en:01:02:37.295
01:09:52.145 : en:01:09:52.145
01:14:41.643 : en:01:14:41.643
01:23:34.551 : en:01:23:34.551
01:26:44.448 : en:01:26:44.448
01:41:58.612 : en:01:41:58.612
01:46:01.313 : en:01:46:01.313

pb.wtf



Скачать Шпион, который меня кинул через торрент https://a.radikal.ru/a33/1810/41/d0bc15189a54.jpg Скачать фильм Шпион, который меня кинул через торрент бесплантно в хорошем качестве Описание: Одри и Морган, лучшие подруги из Лос-Анджелеса, неожиданно оказываются в эпицентре международного заговора, когда бывший Одри ... 10 10 5
Info! Золотая раздача, скачанное не засчитывается.
Торрент: Зарегистрирован [2018-10-30 19:06] · скачан: 419 раз
Статус: √ проверено
Размер: 6.4 GB
Как cкачать? Как скачать Шпион, который меня кинул через торрент | qTorrent

% Раздел Тема Автор DL S | L
Фильмы 2018 [DVDrip, WEB-DLRip, HDrip] (DUB, MVO) [ 1.47 GB ] Шпион который меня кинул / The Spy Who Dumped Me [2018 HDRip] bober100 Скачать
65 | 2
Фильмы [HD 720p, 1080p] (Хороший звук DUB, MVO) [ 8.22 GB ] Шпион который меня кинул / The Spy Who Dumped Me [2018 BDRip 1080p] bober100 Скачать
2 | 0
Фильмы 2018 [DVDrip, WEB-DLRip, HDrip] (DUB, MVO) [ 2.13 GB ] Шпион который меня кинул / The Spy Who Dumped Me [2018 BDRip] - Twi7ter Скачать
2 | 0
Фильмы 2018 [DVDrip, WEB-DLRip, HDrip] (DUB, MVO) [ 1.41 GB ] Шпион который меня кинул / The Spy Who Dumped Me [2018 BDRip] - Twi7ter Скачать
5 | 0
Фильмы 2018 [DVDrip, WEB-DLRip, HDrip] (DUB, MVO) [ 2.18 GB ] Шпион который меня кинул / The Spy Who Dumped Me [2018 HDRip] Леонид Ильич Скачать
5 | 0
Фильмы 2018 [DVDrip, WEB-DLRip, HDrip] (DUB, MVO) [ 711 MB ] Шпион который меня кинул / The Spy Who Dumped Me [2018 HDRip ""] coc900 Скачать
1 | 0
Ultra HD (UHD: 2K, 4K, 8K) — видео сверхвысокой чёткости [ 36.63 GB ] Шпион который меня кинул / The Spy Who Dumped Me [2018 UHD BDRip 2160p] [SDR] - sheker187 Скачать
1 | 0

28-11-2019 20:33  

Отключить всю рекламу на сайте

    Дорогой пользователь! Огромная просьба, поблагодарите релизера, оцените раздачу и оставьте свои комментарий, если Вы скачали Шпион, который меня кинул через торрент бесплатно! Внесите свою лепту в развитие PiratBit!
    Комментировать посты могут только пользователи прошедшие не сложную регистрацию
    Показать сообщения:    

    Шпион, который меня кинул через торрент
    Скачать бесплатно Шпион, который меня кинул
    Шпион, который меня кинул скачать торрент
    Шпион, который меня кинул смотреть онлайн
    Cкачать фильм Шпион, который меня кинул бесплатно
    Шпион, который меня кинул скачать торрент в хорошем качестве
    Шпион, который меня кинул смотреть онлайн бесплатно в хорошем качестве


    Вы не можете начинать темы
    Вы не можете отвечать на сообщения
    Вы не можете редактировать свои сообщения
    Вы не можете удалять свои сообщения
    Вы не можете голосовать в опросах
    Вы не можете прикреплять файлы к сообщениям
    Вы можете скачивать файлы