Ссылка на приватное зеркало всего за 1$. Внимание количество ограничено!!!

iTunes

1+1

iTunes

мы

WEB-DL

1

iTunes

Чернобыль

iTunes

Ральф против интернета

Лицензия

ПШазам

Лицензия

Оно 2

Лицензия

30
pack

Вам бонус

ВАЖНО

!!Акция!!

Alien_RageХит недели

RePack

Resident Evil 21

ИГРА 18+

pack

RePack

jed

!!Акция!!

Alien_Rage

RePack

fifa19

RePack

Assassins Creed: Odyssey

RePack

NEED FOR SPEED™ PAYBACK

3 сезон

9 сезон

Бесстыжие 9 сезон

Все сериалы

все сериалы на PB.wtf

RePack

FAR CRY 5
Ребята, катастрофически не хватает 1900р. для оплаты серверов за Октябрь (всвязи с блокировками трафик упал в 3 раза), 1-2р., выручайте.
  

Шоу Мистико / Великий загадочный цирк / O Grande Circo Místico (Карлус Диегис) [2018, Драма, WEB-DLRip] DUB [iTunes] pb.wtf

Шоу Мистико через торрент pb.wtf

Раздают: 1 [ 0 KB/s ]
Размер: 1.46 GB | Добавлен: 1 год 1 мес. назад | Торрент скачан:287 раз
Скачать  

31-10-2018 07:19 Шоу Мистико Скачать торрент  

Шоу Мистико / Великий загадочный цирк / O Grande Circo Místico
Год выпуска: 2018
Страна: Бразилия , Португалия , Франция
Жанр: Драма
Продолжительность: 01:44:50
Перевод: Дублированный | iTunes
Субтитры: Нет

Режиссер: Карлус Диегис

rating

В ролях:

Венсан Кассель, Антонио де ла Крус, Мариана Шименес, Албану Жерониму, Нуно Лопеш, Давид Огродник, Катрин Муше, Жезуита Барбоза, Антонио Фагундес, Бруна Линзмейер

Описание:

В мае 1910 года, когда над Землей пронеслась комета Галлея, молодой красавец доктор Фред Кипс без ума влюбился в акробатку Беатрис, вопреки воле родителей взял ее в жены и купил для нее цирк, назвав его «Гранд Мистико». Так начинается эта наполненная волшебством и эротикой история, в которую вовлечены фокусник и секс-гигант Жан-Поль, звероподобный силач Рудольфо, близняшки Мария и Елена, зарабатывающие интимными услугами и полетами под куполом цирка, и прочие удивительные герои. Идут годы - Первая мировая война, Вторая, человек ступает на Луну, рушится берлинская стена, комета Галлея пронеслась над Землей снова... И только в «Гранд Мистико», как и сто лет назад, каждый вечер вечно юный загадочный шпрехшталмейстер Селяви объявляет о начале представления. Шоу продолжается...

Качество: WEB-DLRip
Формат: AVI

Видео: 720x320 (2.25:1), 24.000 fps, XviD build 67 ~1 600 kbps avg
Аудио: 48.0 kHz, AC3 Dolby Digital, 3/2 (L,C,R,l,r) + LFE ch, ~384 kbps
скриншот  скриншот  скриншот  скриншот  

General
Полное имя : O.Grande.Circo.Mistico.2018.WEBDLRip.iTunes.RUS-ylnian.avi
Формат : AVI
Формат/Информация : Audio Video Interleave
Размер файла : 1,46 Гбайт
Продолжительность : 1 ч. 44 м.
Общий поток : 1993 Кбит/сек
Программа кодирования : VirtualDubMod 1.5.10.3 | (build 2550/release)
Библиотека кодирования : VirtualDubMod build 2550/release

Видео
Идентификатор : 0
Формат : MPEG-4 Visual
Профиль формата : Advanced Simple@L5
Настройки формата : BVOP1 / Custom Matrix
Параметр BVOP формата : 1
Параметр QPel формата : Нет
Параметр GMC формата : Без точки перехода
Параметр матрицы формата : Выборочная
Идентификатор кодека : XVID
Идентификатор кодека/Подсказка : XviD
Продолжительность : 1 ч. 44 м.
Битрейт : м Кбит/сек
Ширина : 720 пикселей
Высота : 320 пикселей
Соотношение сторон : 2,25:1
Частота кадров : 24,000 кадра/сек
Цветовое пространство : YUV
Субдискретизация насыщенности : 4:2:0
Битовая глубина : 8 бит
Тип развёртки : Прогрессивная
Метод сжатия : С потерями
Бит/(Пиксели*Кадры) : 0.289
Размер потока : 1,17 Гбайт (80%)
Библиотека кодирования : XviD 67

Аудио
Идентификатор : 1
Формат : AC-3
Формат/Информация : Audio Coding 3
Идентификатор кодека : 2000
Продолжительность : 1 ч. 44 м.
Вид битрейта : Постоянный
Битрейт : 384 Кбит/сек
Каналы : 6 каналов
Расположение каналов : Front: L C R, Side: L R, LFE
Частота : 48,0 КГц
Частота кадров : 31,250 кадров/сек (1536 SPF)
Битовая глубина : 16 бит
Метод сжатия : С потерями
Размер потока : 288 Мбайт (19%)
Выравнивание : Разделение по промежуткам
Продолжительность промежутка : 42 мс. (1,00 видеокадр)
Время предзагрузки промежутка : 500 мс.
Заголовок : RUS - DUB - iTunes

pb.wtf



Скачать Шоу Мистико через торрент http://a.radikal.ru/a12/1809/fe/e9ecf10921a6.png Скачать фильм Шоу Мистико через торрент бесплантно в хорошем качестве Описание: В мае 1910 года, когда над Землей пронеслась комета Галлея, молодой красавец доктор Фред Кипс без ума влюбился в акробатку ... 10 10 10
Info! Золотая раздача, скачанное не засчитывается.
Торрент: Зарегистрирован [2018-10-31 07:19] · скачан: 287 раз
Статус: √ проверено
Размер: 1.46 GB
Как cкачать? Как скачать Шоу Мистико через торрент | qTorrent

% Раздел Тема Автор DL S | L
Фильмы (WEB-DL 720p, 1080p) [ 3.75 GB ] Шоу Мистико / Великий загадочный цирк / O Grande Circo Místico [2018 WEB-DL 1080p] bober100 Скачать
1 | 0

28-11-2019 20:33  

Отключить всю рекламу на сайте

31-10-2018 09:16 Шоу Мистико Скачать торрент  

Очень рафинированное кино. Понравится поклонникам Маркеса, Борхеса, Сепульведы и зрителям без гугла знающим значение слов престидижитация и Феллини. Настоящий *магический реализм*. Любителей *жизненного* кино, реалити- и ток-шоу, сериалов может разочаровать. Поэтому рейтинг низкий. Прекрасная работа с цветом, очень хорошие исполнители, музыка, костюмы, цирковые номера. Спасибо за раздачу.pb.wtf



    Дорогой пользователь! Огромная просьба, поблагодарите релизера, оцените раздачу и оставьте свои комментарий, если Вы скачали Шоу Мистико через торрент бесплатно! Внесите свою лепту в развитие PiratBit!
    Комментировать посты могут только пользователи прошедшие не сложную регистрацию
    Показать сообщения:    

    Шоу Мистико через торрент
    Скачать бесплатно Шоу Мистико
    Шоу Мистико скачать торрент
    Шоу Мистико смотреть онлайн
    Cкачать фильм Шоу Мистико бесплатно
    Шоу Мистико скачать торрент в хорошем качестве
    Шоу Мистико смотреть онлайн бесплатно в хорошем качестве


    Вы не можете начинать темы
    Вы не можете отвечать на сообщения
    Вы не можете редактировать свои сообщения
    Вы не можете удалять свои сообщения
    Вы не можете голосовать в опросах
    Вы не можете прикреплять файлы к сообщениям
    Вы можете скачивать файлы