Ссылка на приватное зеркало нашего сайта всего за 1$. Внимание количество ограничено!!!

2 сезон

iTunes

iTunes

1

iTunes

iTunes

iTunes

WEBRip

iTunes

30
pack

Вам бонус

ВАЖНО

!!Акция!!

Alien_RageХит недели

RePack

Horizon Zero Dawn

ИГРА 18+

pack

RePack

jed

!!Акция!!

Alien_Rage

RePack

fifa19

RePack

Assassins Creed: Odyssey

RePack

NEED FOR SPEED™ PAYBACK

4 сезон

9 сезон

Бесстыжие 9 сезон

Все сериалы

все сериалы на PB.wtf

RePack

FAR CRY 5
  

Царь Скорпионов: Книга Душ / The Scorpion King: Book of Soul (Дон Майкл Пол) [2018, Фэнтези, боевик, приключения, BDRip 720p] MVO [@MUZOBOZ@] pb.wtf

Царь Скорпионов: Книга Душ через торрент pb.wtf

Размер: 5.32 GB | Добавлен: 1 год 10 мес. назад | Торрент скачан:101 раз
Скачать  

31-10-2018 11:04 Царь Скорпионов: Книга Душ Скачать торрент  

Царь Скорпионов: Книга Душ / The Scorpion King: Book of Soul
Год выпуска: 2018
Страна: США
Жанр: Фэнтези, боевик, приключения
Продолжительность: 01:44:34
Перевод: Любительский (многоголосый) | @MUZOBOZ@
Субтитры: отсутствуют

Режиссер: Дон Майкл Пол

rating

В ролях:

Зэк МакГоун, Нэйтан Джонс, Питер Менса, Кэти Луиз Саундерс, Перл Туси, Ховард Чарльз, Нг Мэйлин, Инге Бекманн, Ризель Янук, Стефани Шилдкнект

Описание:

Царь Скорпионов объединяется с женщином-воином Талой, сестрой Короля Нубии. Вместе они ищут легендарную Книгу Душ. Эта книга поможет им положить конец господству Лорда Войны.

Качество: BDRip 720p
Формат: MKV

Видео: h.264, 6 831 kb/s, 1280x720
Аудио#1: Русский (AC3, 2 ch,448 Кбит/с)
скриншот  скриншот  скриншот  

Общее
Уникальный идентификатор : 235500399217708571017125643156809377000 (0xB12BBA21B56ABC37867C32326A98E4E8)
Полное имя : D:\The.Scorpion.King.Book.of.Souls.2018.P.BDRip.72Op_KOSHARA.mkv
Формат : Matroska
Версия формата : Version 2
Размер файла : 5,32 Гбайт
Продолжительность : 1 ч. 44 м.
Режим общего битрейта : Переменный
Общий поток : 7281 Кбит/сек
Дата кодирования : UTC 2018-10-30 21:31:02
Программа кодирования : mkvmerge v8.3.0 ('Over the Horizon') 64bit
Библиотека кодирования : libebml v1.3.1 + libmatroska v1.4.2

Видео
Идентификатор : 1
Формат : AVC
Формат/Информация : Advanced Video Codec
Профиль формата : High@L4.1
Параметр CABAC формата : Да
Параметр RefFrames формата : 4 кадра
Идентификатор кодека : V_MPEG4/ISO/AVC
Продолжительность : 1 ч. 44 м.
Вид битрейта : Переменный
Битрейт : 6831 Кбит/сек
Максимальный битрейт : 7500 Кбит/сек
Ширина : 1280 пикселей
Высота : 720 пикселей
Соотношение сторон : 16:9
Режим частоты кадров : Постоянный
Частота кадров : 23,976 (24000/1001) кадра/сек
Стандарт вещания : Component
Цветовое пространство : YUV
Субдискретизация насыщенности : 4:2:0
Битовая глубина : 8 бит
Тип развёртки : Прогрессивная
Бит/(Пиксели*Кадры) : 0.303
Размер потока : 4,89 Гбайт (92%)
Default : Да
Forced : Нет
Цветовой диапазон : Limited
Основные цвета : BT.709
Характеристики трансфера : BT.709
Коэффициенты матрицы : BT.709

Аудио
Идентификатор : 2
Формат : AC-3
Формат/Информация : Audio Coding 3
Расширение режима : CM (complete main)
Параметр Endianness формата : Big
Идентификатор кодека : A_AC3
Продолжительность : 1 ч. 44 м.
Вид битрейта : Постоянный
Битрейт : 448 Кбит/сек
Каналы : 2 канала
Расположение каналов : Front: L R
Частота : 48,0 КГц
Частота кадров : 31,250 кадров/сек (1536 spf)
Метод сжатия : С потерями
Размер потока : 335 Мбайт (6%)
Default : Да
Forced : Нет

pb.wtf



Скачать Царь Скорпионов: Книга Душ через торрент https://d.radikal.ru/d21/1810/cd/7ef8ce9f54ec.jpg Скачать фильм Царь Скорпионов: Книга Душ через торрент бесплантно в хорошем качестве Описание: Царь Скорпионов объединяется с женщином-воином Талой, сестрой Короля Нубии. Вместе они ищут легендарную Книгу Душ. Эта книга ... 10 10 4
Торрент: Зарегистрирован [2018-10-31 11:04] · скачан: 101 раз
Статус: # сомнительно
Размер: 5.32 GB
Как cкачать? Как скачать Царь Скорпионов: Книга Душ через торрент | qTorrent

% Раздел Тема Автор DL S | L
T Фильмы (мультфильмы) cо спонсором показа (Новинки AVI/MKV) [ 1.37 GB ] Царь Скорпионов: Книга Душ / The Scorpion King: Book of Soul [2018 HDRip] MVO [@MUZOBOZ@] bober100 Скачать
2 | 0
T Фильмы (мультфильмы) cо спонсором показа (Новинки AVI/MKV) [ 4.24 GB ] Царь Скорпионов: Книга Душ / The Scorpion King: Book of Souls [2018 WEBRip 1080p Любительский ] oleg8 Скачать
1 | 0

28-11-2019 20:33  

Отключить всю рекламу на сайте

31-10-2018 17:38 Царь Скорпионов: Книга Душ Скачать торрент  

Наивное кино,игра актеров никакая,20 минут просмотра и можно выключать...Перевод тоже в таком духе...pb.wtf



    Дорогой пользователь! Огромная просьба, поблагодарите релизера, оцените раздачу и оставьте свои комментарий, если Вы скачали Царь Скорпионов: Книга Душ через торрент бесплатно! Внесите свою лепту в развитие PiratBit!
    Комментировать посты могут только пользователи прошедшие не сложную регистрацию
    Показать сообщения:    

    Царь Скорпионов: Книга Душ через торрент
    Скачать бесплатно Царь Скорпионов: Книга Душ
    Царь Скорпионов: Книга Душ скачать торрент
    Царь Скорпионов: Книга Душ смотреть онлайн
    Cкачать фильм Царь Скорпионов: Книга Душ бесплатно
    Царь Скорпионов: Книга Душ скачать торрент в хорошем качестве
    Царь Скорпионов: Книга Душ смотреть онлайн бесплатно в хорошем качестве


    Вы не можете начинать темы
    Вы не можете отвечать на сообщения
    Вы не можете редактировать свои сообщения
    Вы не можете удалять свои сообщения
    Вы не можете голосовать в опросах
    Вы не можете прикреплять файлы к сообщениям
    Вы можете скачивать файлы