Всегда рабочее зеркало без VPN и Proxy просто перед .vidak.icu напиши любое слово или цифру, Пример http://0of1.vidak.icu

MVO

MVO

1 сезон

1

1 сезон

iTunes

1 сезон

13

1 сезон

Deluxe

pack

Рекомендуем

Repack

30

ВАЖНО

RePack

MK11

RePack

jed

RePack

fifa19

RePack

RDR2

RePack

NEED FOR SPEED™ PAYBACK

Кинопоиск HD

6 сезон

 Острые козырьки 6 сезон

Все сериалы

все сериалы на PB.wtf

RePack

FAR CRY 5
  
Magnet ссылка

Планета Земля 2 / Planet Earth II / Серии 1-6 из 6 (Джастин Андерсон) [2016 г., Документальный, научно-познавательный, природа, флора, фауна, UHD BDRip 2160p] VO pb.wtf

Планета Земля 2 через торрент pb.wtf

Размер: 56.34 GB | Добавлен: 3 года 9 мес. назад | Торрент скачан:153 раза
Смотреть онлайн Планета Земля 2 | Скачать    Ребята, помогите собрать деньги на оплату серверов!!!

31-10-2018 14:30 Планета Земля 2 Скачать торрент  

Планета Земля 2 / Planet Earth II Год выпуска: 2016
Страна: Великобритания, BBC NHU, BBC America, BBC Television Centre, ZDF
Жанр: Документальный, научно-познавательный, природа, флора, фауна
Продолжительность: 6 x ~00:51:00
Перевод: Профессиональный (одноголосый, закадровый)
Субтитры: Русские (Full-length), Украинские (Full-length), Английские (SDH)
Режиссер: Джастин Андерсон
Ведущий: Дэвид Аттенборо

rating
Описание: Создатели сериалов "Планета Земля" и "Голубая планета" сняли новый фильм, показывающий Землю такой, какой ее еще никто не видел прежде. Невероятные по красоте пейзажи и самые заповедные и малоизученные уголки нашей планеты. Четыре года напряженной работы и беспрецедентный для документального фильма бюджет позволили создать уникальный по масштабности фильм. А революционные режимы сверхскоростной съемки и детализации картинки, сделали возможным показать великолепие нашей природы во всех подробностях.
Самые захватывающие и фантастические эпизоды из популярной документальной серии Планета Земля 2 (Planet Earth II) оживут на огромном 4K-Ultra-HD полотне под эпичную музыку симфонического оркестра. Музыку к этой невероятной серии создали такие известнейшие композиторы, как Ханс Циммер, Джаша Клебе и Джейкоб Ши. Шоу воплотят в жизнь как ультрасовременные технологии, так и Филармония столицы Праги, состоящая из восьмидесяти музыкантов во главе с дирижером Мэтью Фриманом. Планета Земля 2 – документальный мини-сериал производства BBC, который демонстрирует невероятные по красоте пейзажи, заповедные и малоизученные уголки Земли. Планета Земля II стала первым сериалом, выпущенным телеканалом BBC в формате сверхвысокой четкости (4K). Первый эпизод посмотрели 12,26 млн зрителей только в Великобритании, что стало рекордным показателем для документальных фильмов о природе. Кристофер Хутон из The Independent написал о сериале: “Без сомнения, это лучший документальный фильм о природе и один из лучших телевизионных проектов вообще”.

Качество: UHD BDRip 2160p
Формат: MKV
Видео: HEVC, HDR, 20.0 Мбит/с, 3840x2160, 23.976 кадр/с
Аудио №1: RUS DTS / 5.1 / 48 kHz / 1509 kbps / 16 bit | - профессиональный одноголосый (В. Петренко "Омикрон")
Аудио №2: UKR DTS / 5.1 / 48 kHz / 1509 kbps / 16 bit | - профессиональный одноголосый (Ю. Онищенко)
Аудио №3: ENG DTS / 5.1 / 48 kHz / 1509 kbps / 16 bit | - [ORIGINAL]


1. Острова / Islands
2. Горы / Mountains
3. Джунгли / Jungles
4. Пустыни / Deserts
5. Пастбища / Grasslands
6. Города / Cities
Оригинальная озвучка 1 персона - Дэвид Аттенборо.

За появление озвучки «Омикрон» В. Петренко спасибо:
Scorpion26, habal_garmin, banan58, Sytnik, lokolex, caban_2001, McClaud, yuriker, PinCho, qwerty2014, v41, ShaKh, Кириллка, lasvegas, Buxy, gorett, ek0, vrvz, Portos, Turko, stallk, aleksbmf, Rain, Максим360, laser10, iiiMia, superbizho, Igor_M, alvane, santa143, TimT, DOMINO, oopsmsk, AlexRozen, зема2011, Badj, RYBCHENKO, terminal, LLIukO, SpaceShuttle, svnnvs, ayazad, fire_lizard, misterr_, BaseJumper, Plesha, alrmothe, GoAInSIDE, game47, kornilov7, FuzzzzyBoy, nucl2, Wet21, diler7, Milvus, Ant1k91, Markalay, samos2001, YAGOUAROUNDI.

За появление Украинской озвучки, Ю. Онищенко спасибо:
трекеру HURTOM.

В 6м эпизоде отсутствует несколько фраз перевода.
Complete name : D:\Planet.Earth.II.S01.2160p.UHD.BluRay.x265-ExKinoRay\Planet.Earth.II.S01E01.2160p.UHD.BluRay.x265-ExKinoRay.mkv
Format : Matroska
Format version : Version 4 / Version 2
File size : 9.12 GiB
Duration : 53 min 6 s
Overall bit rate : 24.6 Mb/s
Movie name : BBC. Планета Земля 2 / UHD 2160 || Release by SpaceHD13
Encoded date : UTC 2018-10-30 18:50:38
Writing application : mkvmerge v27.0.0 ('Metropolis') 64-bit
Writing library : libebml v1.3.6 + libmatroska v1.4.9
Cover : Yes
Attachments : cover1.png

Video
ID : 1
Format : HEVC
Format/Info : High Efficiency Video Coding
Commercial name : HDR10
Format profile : Main [email protected]@High
Codec ID : V_MPEGH/ISO/HEVC
Duration : 53 min 6 s
Bit rate : 20.0 Mb/s
Width : 3 840 pixels
Height : 2 160 pixels
Display aspect ratio : 16:9
Frame rate mode : Constant
Frame rate : 23.976 (24000/1001) FPS
Color space : YUV
Chroma subsampling : 4:2:0 (Type 2)
Bit depth : 10 bits
Bits/(Pixel*Frame) : 0.101
Stream size : 7.44 GiB (82%)
Title : Planet.Earth.II.S01E01.2160p.UHD.BluRay.x265-ExKinoRay
Writing library : x265 2.5+27-0e168bdeb48b:[Windows][GCC 6.2.1][64 bit] 10bit
Encoding settings : cpuid=1173503 / frame-threads=4 / numa-pools=20 / wpp / no-pmode / no-pme / no-psnr / no-ssim / log-level=2 / input-csp=1 / input-res=3840x2160 / interlace=0 / total-frames=0 / level-idc=51 / high-tier=1 / uhd-bd=1 / ref=4 / no-allow-non-conformance / repeat-headers / annexb / aud / hrd / info / hash=0 / no-temporal-layers / no-open-gop / min-keyint=1 / keyint=24 / bframes=4 / b-adapt=2 / b-pyramid / bframe-bias=0 / rc-lookahead=25 / lookahead-slices=4 / scenecut=40 / no-intra-refresh / ctu=64 / min-cu-size=8 / rect / no-amp / max-tu-size=32 / tu-inter-depth=1 / tu-intra-depth=1 / limit-tu=0 / rdoq-level=2 / dynamic-rd=0.00 / no-ssim-rd / signhide / no-tskip / nr-intra=0 / nr-inter=0 / no-constrained-intra / no-strong-intra-smoothing / max-merge=3 / limit-refs=3 / limit-modes / me=3 / subme=3 / merange=57 / temporal-mvp / weightp / no-weightb / no-analyze-src-pics / deblock=-3:-3 / no-sao / no-sao-non-deblock / rd=4 / no-early-skip / rskip / no-fast-intra / no-tskip-fast / no-cu-lossless / no-b-intra / no-splitrd-skip / rdpenalty=0 / psy-rd=2.00 / psy-rdoq=1.00 / no-rd-refine / analysis-reuse-mode=0 / no-lossless / cbqpoffs=0 / crqpoffs=0 / rc=crf / crf=17.0 / qcomp=0.60 / qpstep=4 / stats-write=0 / stats-read=0 / vbv-maxrate=160000 / vbv-bufsize=160000 / vbv-init=0.9 / crf-max=0.0 / crf-min=0.0 / ipratio=1.40 / pbratio=1.30 / aq-mode=1 / aq-strength=1.00 / cutree / zone-count=0 / no-strict-cbr / qg-size=32 / no-rc-grain / qpmax=69 / qpmin=0 / no-const-vbv / sar=1 / overscan=0 / videoformat=5 / range=0 / colorprim=9 / transfer=16 / colormatrix=9 / chromaloc=1 / chromaloc-top=2 / chromaloc-bottom=2 / display-window=0 / master-display=G(0,0)B(0,0)R(0,0)WP(0,0)L(0,0) / max-cll=0,0 / min-luma=0 / max-luma=1023 / log2-max-poc-lsb=8 / vui-timing-info / vui-hrd-info / slices=1 / opt-qp-pps / opt-ref-list-length-pps / no-multi-pass-opt-rps / scenecut-bias=0.05 / no-opt-cu-delta-qp / no-aq-motion / hdr / hdr-opt / no-dhdr10-opt / analysis-reuse-level=5 / scale-factor=0 / refine-intra=0 / refine-inter=0 / refine-mv=0 / no-limit-sao / ctu-info=0
Default : Yes
Forced : No
Color range : Limited
Color primaries : BT.2020
Transfer characteristics : PQ
Matrix coefficients : BT.2020 non-constant
Mastering display color primaries : R: x=0.000000 y=0.000000, G: x=0.000000 y=0.000000, B: x=0.000000 y=0.000000, White point: x=0.000000 y=0.000000
Mastering display luminance : min: 0.0000 cd/m2, max: 0 cd/m2

Audio #1
ID : 2
Format : DTS
Format/Info : Digital Theater Systems
Codec ID : A_DTS
Duration : 53 min 4 s
Bit rate mode : Constant
Bit rate : 1 509 kb/s
Channel(s) : 6 channels
Channel positions : Front: L C R, Side: L R, LFE
Sampling rate : 48.0 kHz
Frame rate : 93.750 FPS (512 SPF)
Bit depth : 16 bits
Compression mode : Lossy
Stream size : 573 MiB (6%)
Title : (V. Petrenko - Omikron)
Language : Russian
Default : Yes
Forced : No

Audio #2
ID : 3
Format : DTS
Format/Info : Digital Theater Systems
Codec ID : A_DTS
Duration : 53 min 4 s
Bit rate mode : Constant
Bit rate : 1 509 kb/s
Channel(s) : 6 channels
Channel positions : Front: L C R, Side: L R, LFE
Sampling rate : 48.0 kHz
Frame rate : 93.750 FPS (512 SPF)
Bit depth : 16 bits
Compression mode : Lossy
Stream size : 573 MiB (6%)
Title : (J. Onyshchenko)
Language : Ukrainian
Default : No
Forced : No

Audio #3
ID : 4
Format : DTS
Format/Info : Digital Theater Systems
Codec ID : A_DTS
Duration : 53 min 4 s
Bit rate mode : Constant
Bit rate : 1 509 kb/s
Channel(s) : 6 channels
Channel positions : Front: L C R, Side: L R, LFE
Sampling rate : 48.0 kHz
Frame rate : 93.750 FPS (512 SPF)
Bit depth : 16 bits
Compression mode : Lossy
Stream size : 573 MiB (6%)
Title : [ORIGINAL]
Language : English
Default : No
Forced : No

Text #1
ID : 5
Format : UTF-8
Codec ID : S_TEXT/UTF8
Codec ID/Info : UTF-8 Plain Text
Duration : 51 min 36 s
Bit rate : 65 b/s
Count of elements : 319
Stream size : 24.8 KiB (0%)
Title : Full-length
Language : Russian
Default : Yes
Forced : No

Text #2
ID : 6
Format : UTF-8
Codec ID : S_TEXT/UTF8
Codec ID/Info : UTF-8 Plain Text
Duration : 51 min 36 s
Bit rate : 69 b/s
Count of elements : 320
Stream size : 26.2 KiB (0%)
Title : Full-length
Language : Ukrainian
Default : No
Forced : No

Text #3
ID : 7
Format : PGS
Muxing mode : zlib
Codec ID : S_HDMV/PGS
Codec ID/Info : Picture based subtitle format used on BDs/HD-DVDs
Duration : 52 min 18 s
Bit rate : 25.1 kb/s
Count of elements : 710
Stream size : 9.39 MiB (0%)
Language : English
Default : No
Forced : No

Menu
00:00:00.000 : en:00:00:00.000
00:12:26.245 : en:00:12:26.245
00:18:49.253 : en:00:18:49.253
00:33:45.023 : en:00:33:45.023
00:43:04.582 : en:00:43:04.582
pb.wtf



Скачать Планета Земля 2 через торрент https://b.radikal.ru/b12/1810/1b/df3b5f79b3e5.jpg Скачать, смотреть онлайн Планета Земля 2 бесплантно в хорошем качестве Описание: Создатели сериалов "Планета Земля" и "Голубая планета" сняли новый фильм, показывающий Землю такой, какой ее еще никто не видел ... 10 10 7
Info! Золотая раздача, скачанное не засчитывается.
Торрент: Зарегистрирован [2018-10-31 14:30] · скачан: 153 раз
Статус: √ проверено
Размер: 56.34 GB
Как cкачать? Как скачать Планета Земля 2 через торрент | UTorrent

% Раздел Тема Автор DL S | L
Ultra HD (UHD: 2K, 4K, 8K) — видео сверхвысокой чёткости [ 115.01 GB ] Планета Земля 2 / Planet Earth II / Серии 1-6 из 6 [2016 Документальный научно-познавательный природа флора фауна UHD BDRemux 2160p] VO sheker187 Скачать
3 | 0
BBC [ 2.2 GB ] Планета Земля 2 / Planet Earth II / 1-3 серий из 6 [2016 документальный природа путешествие исследование флора фауна HDRip] [DVO] killermax2013 Скачать
1 | 0
BBC [ 5.28 GB ] Планета Земля 2 / Planet Earth II / 1-6 серий из 6 [2016 документальный природа путешествие исследование флора фауна BDRip] DVO bober100 Скачать
1 | 0

28-11-2019 20:33  

Отключить вcю реклaмy на сайте

    Дорогой пользователь! Огромная просьба, поблагодарите релизера, оцените раздачу и оставьте свои комментарий, если Вы скачали Планета Земля 2 через торрент бесплатно!
    Комментировать посты могут только пользователи прошедшие не сложную регистрацию
    Показать сообщения:    

    Планета Земля 2 через торрент
    Скачать бесплатно Планета Земля 2
    Планета Земля 2 скачать торрент
    Планета Земля 2 смотреть онлайн
    Cкачать фильм Планета Земля 2 бесплатно
    Планета Земля 2 скачать торрент в хорошем качестве
    Планета Земля 2 смотреть онлайн бесплатно в хорошем качестве


    Вы не можете начинать темы
    Вы не можете отвечать на сообщения
    Вы не можете редактировать свои сообщения
    Вы не можете удалять свои сообщения
    Вы не можете голосовать в опросах
    Вы не можете прикреплять файлы к сообщениям
    Вы можете скачивать файлы