Ссылка на приватное зеркало нашего сайта всего за 1$. Внимание количество ограничено!!!

2 сезон

iTunes

iTunes

1

iTunes

iTunes

iTunes

WEBRip

iTunes

30
pack

Вам бонус

ВАЖНО

!!Акция!!

Alien_RageХит недели

RePack

Horizon Zero Dawn

ИГРА 18+

pack

RePack

jed

!!Акция!!

Alien_Rage

RePack

fifa19

RePack

Assassins Creed: Odyssey

RePack

NEED FOR SPEED™ PAYBACK

4 сезон

9 сезон

Бесстыжие 9 сезон

Все сериалы

все сериалы на PB.wtf

RePack

FAR CRY 5
  

Хеллис / Hellis (Дэвид Петруччи) [2018, криминал, драма, WEB-DL 720p] MVO ["Синема УС"] pb.wtf

Хеллис через торрент pb.wtf

Размер: 3.24 GB | Добавлен: 1 год 10 мес. назад | Торрент скачан:36 раз
Скачать  

31-10-2018 15:23 Хеллис Скачать торрент  

Хеллис / HellisГод выпуска: 2018
Страна: США
Жанр: криминал, драма
Продолжительность: 01:18:56
Перевод: Любительский (многоголосый) | "Синема УС"
Субтитры: отсутствуют

Режиссер: Дэвид Петруччи



В ролях:

Франческо Аквароли, Давиде Амато, Массимилиано Амато, Этторе Бельмондо, Мариус Бизо, Фабрицио Бординьон, Диего Боттиглири, Уолтер Да Поццо, Кристоф Хюльсен, Федерико Палмири, Дэвид Петруччи, Франческо Рандаццо, Лоренцо Ренци, Андрея Тоган, Альберто Торди

Описание:

Агент Хеллис отправляется в Трансильванию, чтобы украсть сверхсекретную разработку румынских учёных, которая способна изменить военный баланс планеты.

Качество: WEB-DL 720p
Формат: MKV

Видео: h.264,5 498 kb/s, 1280x544
Аудио#1: Русский, (AC3, 2 ch, 384 Кбит/с)
скриншот  скриншот  скриншот  

Общее
Уникальный идентификатор : 232941114385678094949445122468191645802 (0xAF3ED3A5B83A17EEB1D9D0ADD88FB06A)
Полное имя : D:\Hellis.2O18.P.WEB-DL.72Op_KOSHARA.mkv
Формат : Matroska
Версия формата : Version 2
Размер файла : 3,24 Гбайт
Продолжительность : 1 ч. 18 м.
Режим общего битрейта : Переменный
Общий поток : 5884 Кбит/сек
Дата кодирования : UTC 2018-10-30 09:06:05
Программа кодирования : mkvmerge v8.3.0 ('Over the Horizon') 64bit
Библиотека кодирования : libebml v1.3.1 + libmatroska v1.4.2

Видео
Идентификатор : 1
Формат : AVC
Формат/Информация : Advanced Video Codec
Профиль формата : High@L4.1
Параметр CABAC формата : Да
Параметр RefFrames формата : 4 кадра
Идентификатор кодека : V_MPEG4/ISO/AVC
Продолжительность : 1 ч. 18 м.
Вид битрейта : Переменный
Битрейт : 5498 Кбит/сек
Максимальный битрейт : 6000 Кбит/сек
Ширина : 1280 пикселей
Высота : 544 пикселя
Соотношение сторон : 2,35:1
Режим частоты кадров : Постоянный
Частота кадров : 23,976 (24000/1001) кадра/сек
Стандарт вещания : Component
Цветовое пространство : YUV
Субдискретизация насыщенности : 4:2:0
Битовая глубина : 8 бит
Тип развёртки : Прогрессивная
Бит/(Пиксели*Кадры) : 0.322
Размер потока : 2,97 Гбайт (91%)
Default : Да
Forced : Нет
Цветовой диапазон : Limited
Основные цвета : BT.709
Характеристики трансфера : BT.709
Коэффициенты матрицы : BT.709

Аудио
Идентификатор : 2
Формат : AC-3
Формат/Информация : Audio Coding 3
Расширение режима : CM (complete main)
Параметр Endianness формата : Big
Идентификатор кодека : A_AC3
Продолжительность : 1 ч. 18 м.
Вид битрейта : Постоянный
Битрейт : 384 Кбит/сек
Каналы : 2 канала
Расположение каналов : Front: L R
Частота : 48,0 КГц
Частота кадров : 31,250 кадров/сек (1536 spf)
Метод сжатия : С потерями
Размер потока : 217 Мбайт (7%)
Default : Да
Forced : Нет

pb.wtf



Скачать Хеллис через торрент https://b.radikal.ru/b39/1810/ab/29d1415f7147.jpg Скачать фильм Хеллис через торрент бесплантно в хорошем качестве Описание: Агент Хеллис отправляется в Трансильванию, чтобы украсть сверхсекретную разработку румынских учёных, которая способна изменить ... 10 10 4
Торрент: Зарегистрирован [2018-10-31 15:23] · скачан: 36 раз
Статус: T временная
Размер: 3.24 GB
Как cкачать? Как скачать Хеллис через торрент | qTorrent

% Раздел Тема Автор DL S | L
T Фильмы (мультфильмы) cо спонсором показа (Новинки AVI/MKV) [ 1.47 GB ] Хеллис / Hellis [2018 WEB-DLRip] MVO ["Синема УС"] bober100 Скачать
1 | 0

28-11-2019 20:33  

Отключить всю рекламу на сайте

31-10-2018 16:34 Хеллис Скачать торрент  

я так понимаю - разработку ДРЕВНИХ румынских учёных?pb.wtf



    Дорогой пользователь! Огромная просьба, поблагодарите релизера, оцените раздачу и оставьте свои комментарий, если Вы скачали Хеллис через торрент бесплатно! Внесите свою лепту в развитие PiratBit!
    Комментировать посты могут только пользователи прошедшие не сложную регистрацию
    Показать сообщения:    

    Хеллис через торрент
    Скачать бесплатно Хеллис
    Хеллис скачать торрент
    Хеллис смотреть онлайн
    Cкачать фильм Хеллис бесплатно
    Хеллис скачать торрент в хорошем качестве
    Хеллис смотреть онлайн бесплатно в хорошем качестве


    Вы не можете начинать темы
    Вы не можете отвечать на сообщения
    Вы не можете редактировать свои сообщения
    Вы не можете удалять свои сообщения
    Вы не можете голосовать в опросах
    Вы не можете прикреплять файлы к сообщениям
    Вы можете скачивать файлы