Ссылка на приватное зеркало всего за 1$. Внимание количество ограничено!!!

OK

1+1

iTunes

мы

OK

1

WEB-DLRip

Джокер

Пифагор

Ведьмак / The Witcher сериал

iTunes

ПШазам

ОК

Оно 2

iTunes

30
pack

Вам бонус

ВАЖНО

!!Акция!!

Alien_RageХит недели

RePack

Resident Evil 21

ИГРА 18+

pack

RePack

jed

RePack

fifa19

RePack

Assassins Creed: Odyssey

RePack

NEED FOR SPEED™ PAYBACK

4 сезон

9 сезон

Бесстыжие 9 сезон

Все сериалы

все сериалы на PB.wtf

RePack

FAR CRY 5
  

Игры хакеров: Возвращение / Hacker's Game Redux (Сирил Морин) [2018, Триллер, WEB-DL 720p] MVO ["Синема УС"] pb.wtf

Игры хакеров: Возвращение через торрент pb.wtf

Размер: 3.35 GB | Добавлен: 1 год 2 мес. назад | Торрент скачан:89 раз
Скачать  

31-10-2018 19:22 Игры хакеров: Возвращение Скачать торрент  

Игры хакеров: Возвращение / Hacker's Game Redux
Год выпуска: 2018
Страна: США
Жанр: Триллер
Продолжительность: 01:31:52
Перевод: Любительский (многоголосый) | "Синема УС"
Субтитры: отсутствуют

Режиссер: Сирил Морин

rating

В ролях:

Пом Клементьефф, Алена фон Строхейм, Сиркус-Шалевски, Гайла Джонсон, Росс Батлер, Тед Мэттисон, Крис Шелленгер, Кинг Орба

Описание:

Сойан - хакер, работающий на компанию, которую до этого взломал. Эта онлайн-фирма по безопасности проводит скрытые действия для высококлассных клиентов по всему миру. Луис - кибер-детектив, она расследует военные преступления для правозащитной организации. Она одержима истиной. Луис и Сойан находят связь, но Сойан должен защитить того же торговца оружием, которого Луис хочет поймать. Какова реальная цель Сойана? Между Луис и Сойан возникает опасный роман. Нахоясь в виртуальном мире, готовы ли Сойан и Луис рискнуть всем ради настоящей любви?

Качество: WEB-DL 720p
Формат: MKV

Видео: h.264,4 842 kb/s, 1280x544
Аудио#1: Русский, (AC3, 2 ch, 384 Кбит/с)
скриншот  скриншот  скриншот  

Общее
Уникальный идентификатор : 238792556733127578268579098021899553114 (0xB3A5C6076EBC1552B0AE14433664495A)
Полное имя : D:\Hackers.Game.Redux.2O18.P.WEB-DL.72Op_KOSHARA.mkv
Формат : Matroska
Версия формата : Version 2
Размер файла : 3,35 Гбайт
Продолжительность : 1 ч. 31 м.
Режим общего битрейта : Переменный
Общий поток : 5227 Кбит/сек
Дата кодирования : UTC 2018-10-31 18:35:00
Программа кодирования : mkvmerge v8.3.0 ('Over the Horizon') 64bit
Библиотека кодирования : libebml v1.3.1 + libmatroska v1.4.2

Видео
Идентификатор : 1
Формат : AVC
Формат/Информация : Advanced Video Codec
Профиль формата : High@L4.1
Параметр CABAC формата : Да
Параметр RefFrames формата : 4 кадра
Идентификатор кодека : V_MPEG4/ISO/AVC
Продолжительность : 1 ч. 31 м.
Вид битрейта : Переменный
Битрейт : 4842 Кбит/сек
Максимальный битрейт : 5500 Кбит/сек
Ширина : 1280 пикселей
Высота : 544 пикселя
Соотношение сторон : 2,35:1
Режим частоты кадров : Постоянный
Частота кадров : 23,976 (24000/1001) кадра/сек
Стандарт вещания : Component
Цветовое пространство : YUV
Субдискретизация насыщенности : 4:2:0
Битовая глубина : 8 бит
Тип развёртки : Прогрессивная
Бит/(Пиксели*Кадры) : 0.284
Размер потока : 3,04 Гбайт (91%)
Default : Да
Forced : Нет
Цветовой диапазон : Limited
Основные цвета : BT.709
Характеристики трансфера : BT.709
Коэффициенты матрицы : BT.709

Аудио
Идентификатор : 2
Формат : AC-3
Формат/Информация : Audio Coding 3
Расширение режима : CM (complete main)
Параметр Endianness формата : Big
Идентификатор кодека : A_AC3
Продолжительность : 1 ч. 31 м.
Вид битрейта : Постоянный
Битрейт : 384 Кбит/сек
Каналы : 2 канала
Расположение каналов : Front: L R
Частота : 48,0 КГц
Частота кадров : 31,250 кадров/сек (1536 spf)
Метод сжатия : С потерями
Размер потока : 252 Мбайт (7%)
Default : Да
Forced : Нет

pb.wtf



Скачать Игры хакеров: Возвращение через торрент https://b.radikal.ru/b07/1810/14/bae0de38c74d.jpg Скачать фильм Игры хакеров: Возвращение через торрент бесплантно в хорошем качестве Описание: Сойан - хакер, работающий на компанию, которую до этого взломал. Эта онлайн-фирма по безопасности проводит скрытые действия для ... 10 10 4
Торрент: Зарегистрирован [2018-10-31 19:22] · скачан: 89 раз
Статус: T временная
Размер: 3.35 GB
Как cкачать? Как скачать Игры хакеров: Возвращение через торрент | qTorrent

28-11-2019 20:33  

Отключить всю рекламу на сайте

02-11-2018 17:58 Игры хакеров: Возвращение Скачать торрент  

47 скачавших......ну и как фильм?pb.wtf



    Дорогой пользователь! Огромная просьба, поблагодарите релизера, оцените раздачу и оставьте свои комментарий, если Вы скачали Игры хакеров: Возвращение через торрент бесплатно! Внесите свою лепту в развитие PiratBit!
    Комментировать посты могут только пользователи прошедшие не сложную регистрацию
    Показать сообщения:    

    Игры хакеров: Возвращение через торрент
    Скачать бесплатно Игры хакеров: Возвращение
    Игры хакеров: Возвращение скачать торрент
    Игры хакеров: Возвращение смотреть онлайн
    Cкачать фильм Игры хакеров: Возвращение бесплатно
    Игры хакеров: Возвращение скачать торрент в хорошем качестве
    Игры хакеров: Возвращение смотреть онлайн бесплатно в хорошем качестве


    Вы не можете начинать темы
    Вы не можете отвечать на сообщения
    Вы не можете редактировать свои сообщения
    Вы не можете удалять свои сообщения
    Вы не можете голосовать в опросах
    Вы не можете прикреплять файлы к сообщениям
    Вы можете скачивать файлы