Ссылка на приватное зеркало всего за 1$. Внимание количество ограничено!!!

OK

1+1

iTunes

мы

OK

1

WEB-DLRip

Джокер

Пифагор

Ведьмак / The Witcher сериал

Лицензия

ПШазам

ОК

Оно 2

iTunes

30
pack

Вам бонус

ВАЖНО

!!Акция!!

Alien_RageХит недели

RePack

Resident Evil 21

ИГРА 18+

pack

RePack

jed

!!Акция!!

Alien_Rage

RePack

fifa19

RePack

Assassins Creed: Odyssey

RePack

NEED FOR SPEED™ PAYBACK

4 сезон

9 сезон

Бесстыжие 9 сезон

Все сериалы

все сериалы на PB.wtf

RePack

FAR CRY 5
  

Лондонские поля / London Fields (Мэтью Каллен) [2018, триллер, криминал, детектив, WEB-DL 1080p] DUB [iTunes] pb.wtf

Лондонские поля через торрент pb.wtf

Раздают: 2 [ 0 KB/s ]
Размер: 3.54 GB | Добавлен: 1 год 2 мес. назад | Торрент скачан:532 раза
Скачать  

01-11-2018 01:39 Лондонские поля Скачать торрент  

Лондонские поля / London Fields Год выпуска: 2018
Страна: Великобритания, США
Жанр: триллер, криминал, детектив
Продолжительность: 01:43:07
Перевод: Дублированный | iTunes
Субтитры: отсутствуют

Режиссер: Мэтью Каллен

rating

В ролях:

Эмбер Хёрд, Джемма Чан, Кара Делевинь, Тео Джеймс, Джейсон Айзекс, Джейми Александер, Билли Боб Торнтон, Джим Стёрджесс, Лили Коул, Генри Гаррет

Описание:

Никола Сикс, роковая красотка, обладающая даром ясновидения, живет с предчувствием своей скорой смерти. Не удержавшись, она начинает опасный любовный роман сразу с тремя совершено разными мужчинами, хотя Никола точно знает, что один из них вскоре станет её убийцей...

Качество: WEB-DL 1080p
Формат: MKV

Видео: MPEG-4 AVC, 4431 Кбит/с, 1920x804
Аудио: Русский (AC3, 6 ch, 384 Кбит/с)
скриншот   скриншот   скриншот  

Общее
Уникальный идентификатор : 226899317973756266852879743856153240100 (0xAAB33815EED3E9378060686F2E68A224)
Полное имя : D:\London.Fields.2O18.D.WEB-DL.1O8Oр.mkv
Формат : Matroska
Версия формата : Version 2
Размер файла : 3,54 Гбайт
Продолжительность : 1 ч. 43 м.
Общий поток : 4913 Кбит/сек
Дата кодирования : UTC 2018-10-31 18:07:50
Программа кодирования : mkvmerge v8.3.0 ('Over the Horizon') 64bit
Библиотека кодирования : libebml v1.3.1 + libmatroska v1.4.2

Видео
Идентификатор : 1
Формат : AVC
Формат/Информация : Advanced Video Codec
Профиль формата : High@L4
Параметр CABAC формата : Да
Параметр RefFrames формата : 5 кадров
Идентификатор кодека : V_MPEG4/ISO/AVC
Продолжительность : 1 ч. 43 м.
Битрейт : 4431 Кбит/сек
Ширина : 1920 пикселей
Высота : 804 пикселя
Соотношение сторон : 2,40:1
Режим частоты кадров : Постоянный
Частота кадров : 25,000 кадров/сек
Цветовое пространство : YUV
Субдискретизация насыщенности : 4:2:0
Битовая глубина : 8 бит
Тип развёртки : Прогрессивная
Бит/(Пиксели*Кадры) : 0.115
Размер потока : 3,19 Гбайт (90%)
Язык : English
Default : Да
Forced : Нет
Цветовой диапазон : Limited
Основные цвета : BT.709
Характеристики трансфера : BT.709
Коэффициенты матрицы : BT.709

Аудио
Идентификатор : 2
Формат : AC-3
Формат/Информация : Audio Coding 3
Расширение режима : CM (complete main)
Параметр Endianness формата : Big
Идентификатор кодека : A_AC3
Продолжительность : 1 ч. 43 м.
Вид битрейта : Постоянный
Битрейт : 384 Кбит/сек
Каналы : 6 каналов
Расположение каналов : Front: L C R, Side: L R, LFE
Частота : 48,0 КГц
Частота кадров : 31,250 кадров/сек (1536 spf)
Метод сжатия : С потерями
Размер потока : 283 Мбайт (8%)
Язык : Russian
Default : Да
Forced : Нет

Меню
00:00:00.000 : en:Глава 1
00:04:38.440 : en:Глава 2
00:11:54.880 : en:Глава 3
00:16:56.480 : en:Глава 4
00:23:34.320 : en:Глава 5
00:28:31.880 : en:Глава 6
00:33:40.200 : en:Глава 7
00:38:58.440 : en:Глава 8
00:44:29.360 : en:Глава 9
00:49:09.600 : en:Глава 10
00:55:51.760 : en:Глава 11
01:02:47.360 : en:Глава 12
01:07:43.240 : en:Глава 13
01:14:39.240 : en:Глава 14
01:20:39.960 : en:Глава 15
01:26:58.160 : en:Глава 16
01:30:51.520 : en:Глава 17
01:36:58.280 : en:Глава 16

pb.wtf



Скачать Лондонские поля через торрент https://d.radikal.ru/d43/1810/b3/9917e593727e.png Скачать фильм Лондонские поля через торрент бесплантно в хорошем качестве Описание: Никола Сикс, роковая красотка, обладающая даром ясновидения, живет с предчувствием своей скорой смерти. Не удержавшись, она ... 9.8 10 12
Info! Золотая раздача, скачанное не засчитывается.
Торрент: Зарегистрирован [2018-11-01 01:39] · скачан: 532 раз
Статус: √ проверено
Размер: 3.54 GB
Как cкачать? Как скачать Лондонские поля через торрент | qTorrent

% Раздел Тема Автор DL S | L
Фильмы 2018 [DVDrip, WEB-DLRip, HDrip] (DUB, MVO) [ 1.41 GB ] Лондонские поля / London Fields [2018 BDRip] - Twi7ter Скачать
1 | 0
Фильмы [HD 720p, 1080p] (Хороший звук DUB, MVO) [ 4.15 GB ] Лондонские поля / London Fields [2018 BDRip 720p] bober100 Скачать
2 | 0
Фильмы 2018 [DVDrip, WEB-DLRip, HDrip] (DUB, MVO) [ 1.41 GB ] Лондонские поля / London Fields [2018 BDRip] bober100 Скачать
2 | 0
Фильмы [HD 720p, 1080p] (Хороший звук DUB, MVO) [ 8.31 GB ] Лондонские поля / London Fields [2018 BDRip 1080p] bober100 Скачать
1 | 0
Фильмы (Blu-ray, BD-Remux, HDDVD) [ 25.7 GB ] Лондонские поля / London Fields [2018 BD Remux 1080p] bober100 Скачать
1 | 0
Фильмы (WEB-DL 720p, 1080p) [ 3.18 GB ] Лондонские поля / London Fields [2018 WEB-DL 720p] bober100 Скачать
3 | 0


Последний раз редактировалось: bober100 (2018-11-01 07:04), всего редактировалось 1 раз

28-11-2019 20:33  

Отключить всю рекламу на сайте

01-11-2018 05:00 Лондонские поля Скачать торрент  

Фильм нормальный,можно скачивать,старый одобряет... pb.wtf



    Дорогой пользователь! Огромная просьба, поблагодарите релизера, оцените раздачу и оставьте свои комментарий, если Вы скачали Лондонские поля через торрент бесплатно! Внесите свою лепту в развитие PiratBit!
    Комментировать посты могут только пользователи прошедшие не сложную регистрацию
    Показать сообщения:    

    Лондонские поля через торрент
    Скачать бесплатно Лондонские поля
    Лондонские поля скачать торрент
    Лондонские поля смотреть онлайн
    Cкачать фильм Лондонские поля бесплатно
    Лондонские поля скачать торрент в хорошем качестве
    Лондонские поля смотреть онлайн бесплатно в хорошем качестве


    Вы не можете начинать темы
    Вы не можете отвечать на сообщения
    Вы не можете редактировать свои сообщения
    Вы не можете удалять свои сообщения
    Вы не можете голосовать в опросах
    Вы не можете прикреплять файлы к сообщениям
    Вы можете скачивать файлы