Ссылка на приватное зеркало нашего сайта всего за 1$. Внимание количество ограничено!!!

2 сезон

iTunes

1 сезон

1

2 сезон

2 сезон

iTunes

1 сезон

RePack

30

Ultimate

ВАЖНО

ИГРА 18+

pack

RePack

MK11
pack

Забери бонус

RePack

jed

!!Акция!!

Alien_Rage

RePack

fifa19

RePack

Assassins Creed: Odyssey

RePack

NEED FOR SPEED™ PAYBACK

4 сезон

9 сезон

Бесстыжие 9 сезон

Все сериалы

все сериалы на PB.wtf

RePack

FAR CRY 5
  

Джим Пуговка и машинист Лукас / Jim Knopf und Lukas der Lokomotivführer (Деннис Ганзель) [2018, фэнтези, приключения, семейный, WEB-DL 1080p] DUB [iTunes] pb.wtf

Джим Пуговка и машинист Лукас через торрент pb.wtf

Раздают: 3 [ 0 KB/s ]
Размер: 3.81 GB | Добавлен: 2 года назад | Торрент скачан:776 раз
Скачать  

01-11-2018 01:47 Джим Пуговка и машинист Лукас Скачать торрент  

Джим Пуговка и машинист Лукас / Jim Knopf und Lukas der Lokomotivführer
Год выпуска: 2018
Страна: Германия
Жанр: фэнтези, приключения, семейный
Продолжительность: 01:49:59
Перевод: Дублированный | iTunes
Субтитры: отсутствуют

Режиссер: Деннис Ганзель

rating

В ролях:

Хеннинг Баум, Као Ченмин, Энди Чунг, Тадаси Эндо, Лейганн Эсперанцате, Аннета Фрир, Томас Фритш, Соломон Гордон, Эден Гоф, Михаэль Хербиг

Описание:

Волшебная страна Медландия расположена на острове. Сюда почтальон доставляет посылку c маленьким мальчиком. Он вырастает в храброго искателя приключений. На поезде-вездеходе Джим отправляется через океан и пустыню в город Драконов, чтобы спасти принцессу.

Качество: WEB-DL 1080p
Формат: MKV

Видео: MPEG-4 AVC, 4474 Кбит/с, 1920x858
Аудио: AC3, 6 ch, 384 kbps
скриншот   скриншот   скриншот  

Общее
Уникальный идентификатор : 215744016322535272725658213559854806203 (0xA24EC940320520C48C021A1FACB1B4BB)
Полное имя : D:\Jim.Knopf.und.Lukas.der.Lokomotivführer.2O18.D.WEB-DL.1O8Op.mkv
Формат : Matroska
Версия формата : Version 4 / Version 2
Размер файла : 3,81 Гбайт
Продолжительность : 1 ч. 49 м.
Общий поток : 4956 Кбит/сек
Название фильма : JIM_PUGOFFKA_2018_WEB_DL_1080p-BLUEBIRD
Дата кодирования : UTC 2018-10-31 18:32:24
Программа кодирования : mkvmerge v6.9.1 ('Blue Panther') 32bit built on Apr 18 2014 18:15:44
Библиотека кодирования : libebml v1.3.0 + libmatroska v1.4.1

Видео
Идентификатор : 1
Формат : AVC
Формат/Информация : Advanced Video Codec
Профиль формата : High@L4
Параметр CABAC формата : Да
Параметр RefFrames формата : 5 кадров
Идентификатор кодека : V_MPEG4/ISO/AVC
Продолжительность : 1 ч. 49 м.
Битрейт : 4474 Кбит/сек
Ширина : 1920 пикселей
Высота : 858 пикселей
Соотношение сторон : 2,25:1
Режим частоты кадров : Постоянный
Частота кадров : 24,000 кадра/сек
Цветовое пространство : YUV
Субдискретизация насыщенности : 4:2:0
Битовая глубина : 8 бит
Тип развёртки : Прогрессивная
Бит/(Пиксели*Кадры) : 0.113
Размер потока : 3,44 Гбайт (90%)
Заголовок : JIM_PUGOFFKA_2018_WEB_DL_1080p-BLUEBIRD
Язык : English
Default : Да
Forced : Нет
Цветовой диапазон : Limited
Основные цвета : BT.709
Характеристики трансфера : BT.709
Коэффициенты матрицы : BT.709

Аудио
Идентификатор : 2
Формат : AC-3
Формат/Информация : Audio Coding 3
Расширение режима : CM (complete main)
Параметр Endianness формата : Big
Идентификатор кодека : A_AC3
Продолжительность : 1 ч. 49 м.
Вид битрейта : Постоянный
Битрейт : 384 Кбит/сек
Каналы : 6 каналов
Расположение каналов : Front: L C R, Side: L R, LFE
Частота : 48,0 КГц
Частота кадров : 31,250 кадров/сек (1536 spf)
Метод сжатия : С потерями
Размер потока : 302 Мбайт (8%)
Заголовок : [DUB] DD 5.1 @ 384 kbps (iTunes)
Язык : Russian
Default : Да
Forced : Нет

Меню
00:00:00.000 : en:Глава 1
00:07:25.000 : en:Глава 2
00:14:46.625 : en:Глава 3
00:22:24.625 : en:Глава 4
00:29:54.666 : en:Глава 5
00:37:11.832 : en:Глава 6
00:44:42.582 : en:Глава 7
00:52:54.957 : en:Глава 8
01:00:12.665 : en:Глава 9
01:07:38.331 : en:Глава 10
01:14:55.747 : en:Глава 11
01:22:35.497 : en:Глава 12
01:30:17.497 : en:Глава 13
01:37:39.538 : en:Глава 14

pb.wtf



Скачать Джим Пуговка и машинист Лукас через торрент http://img11.lostpic.net/2018/11/01/4ed560dd3ec7b100d0b632fc04313125.png Скачать фильм Джим Пуговка и машинист Лукас через торрент бесплантно в хорошем качестве Описание: Волшебная страна Медландия расположена на острове. Сюда почтальон доставляет посылку c маленьким мальчиком. Он вырастает в ... 9.7 10 15
Info! Золотая раздача, скачанное не засчитывается.
Торрент: Зарегистрирован [2018-11-01 01:47] · скачан: 776 раз
Статус: √ проверено
Размер: 3.81 GB
Как cкачать? Как скачать Джим Пуговка и машинист Лукас через торрент | qTorrent

% Раздел Тема Автор DL S | L
Фильмы 2018 [DVDrip, WEB-DLRip, HDrip] (DUB, MVO) [ 1.41 GB ] Джим Пуговка и машинист Лукас / Jim Knopf und Lukas der Lokomotivführer [2018 BDRip] - Twi7ter Скачать
1 | 0
Фильмы 2018 [DVDrip, WEB-DLRip, HDrip] (DUB, MVO) [ 2.14 GB ] Джим Пуговка и машинист Лукас / Jim Knopf und Lukas der Lokomotivführer [2018 BDRip] - Twi7ter Скачать
2 | 0
Фильмы (Blu-ray, BD-Remux, HDDVD) [ 25.9 GB ] Джим Пуговка и машинист Лукас / Jim Knopf und Lukas der Lokomotivführer [2018 BDRip 1080p] bober100 Скачать
1 | 0
Фильмы [HD 720p, 1080p] (Хороший звук DUB, MVO) [ 9.57 GB ] Джим Пуговка и машинист Лукас / Jim Knopf und Lukas der Lokomotivführer [2018 BDRip 1080p] bober100 Скачать
1 | 0
Фильмы 2018 [DVDrip, WEB-DLRip, HDrip] (DUB, MVO) [ 1.41 GB ] Джим Пуговка и машинист Лукас / Jim Knopf und Lukas der Lokomotivführer [2018 BDRip] bober100 Скачать
1 | 0
Ultra HD (UHD: 2K, 4K, 8K) — видео сверхвысокой чёткости [ 54.7 GB ] Джим Пуговка и машинист Лукас / Jim Knopf und Lukas der Lokomotivführer [2018 UHD Blu-Ray 2160p] bober100 Скачать
1 | 0
Ultra HD (UHD: 2K, 4K, 8K) — видео сверхвысокой чёткости [ 50.46 GB ] Джим Пуговка и машинист Лукас / Jim Knopf und Lukas der Lokomotivführer [2018 UHD BDRemux 2160p] sheker187 Скачать
1 | 0

28-11-2019 20:33  

Отключить всю рекламу на сайте

    Дорогой пользователь! Огромная просьба, поблагодарите релизера, оцените раздачу и оставьте свои комментарий, если Вы скачали Джим Пуговка и машинист Лукас через торрент бесплатно! Внесите свою лепту в развитие PiratBit!
    Комментировать посты могут только пользователи прошедшие не сложную регистрацию
    Показать сообщения:    

    Джим Пуговка и машинист Лукас через торрент
    Скачать бесплатно Джим Пуговка и машинист Лукас
    Джим Пуговка и машинист Лукас скачать торрент
    Джим Пуговка и машинист Лукас смотреть онлайн
    Cкачать фильм Джим Пуговка и машинист Лукас бесплатно
    Джим Пуговка и машинист Лукас скачать торрент в хорошем качестве
    Джим Пуговка и машинист Лукас смотреть онлайн бесплатно в хорошем качестве


    Вы не можете начинать темы
    Вы не можете отвечать на сообщения
    Вы не можете редактировать свои сообщения
    Вы не можете удалять свои сообщения
    Вы не можете голосовать в опросах
    Вы не можете прикреплять файлы к сообщениям
    Вы можете скачивать файлы