Ссылка на приватное зеркало всего за 1$. Внимание количество ограничено!!!

OK

1+1

iTunes

мы

OK

1

WEB-DLRip

Джокер

Пифагор

Ведьмак / The Witcher сериал

iTunes

ПШазам

ОК

Оно 2

iTunes

30
pack

Вам бонус

ВАЖНО

!!Акция!!

Alien_RageХит недели

RePack

Resident Evil 21

ИГРА 18+

pack

RePack

jed

RePack

fifa19

RePack

Assassins Creed: Odyssey

RePack

NEED FOR SPEED™ PAYBACK

4 сезон

9 сезон

Бесстыжие 9 сезон

Все сериалы

все сериалы на PB.wtf

RePack

FAR CRY 5
  

Горная лихорадка / Mountain Fever (Хендрик Фаллер) [2017, Триллер, драма, WEB-DL 720p] MVO ["Синема УС"] pb.wtf

Горная лихорадка через торрент pb.wtf

Размер: 2.86 GB | Добавлен: 1 год 2 мес. назад | Торрент скачан:37 раз
Скачать  

01-11-2018 07:17 Горная лихорадка Скачать торрент  

Горная лихорадка / Mountain FeverГод выпуска: 2017
Страна: Франция, Великобритания
Жанр: Триллер, драма
Продолжительность: 01:18:38
Перевод: Любительский (многоголосый) | "Синема УС"
Субтитры: отсутствуют

Режиссер: Хендрик Фаллер

rating

В ролях:

Жюльен Каплан, Аня Корзун, Жюльен Мишель, Том Миллер

Описание:

Оказавшись в заложникам в своём же доме, неумелый англичанин вынужден объединиться со своим захватчиком, чтобы вместе отбиваться от других выживших после смертельной эпидемии гриппа.

Качество: WEB-DL 720p
Формат: MKV

Видео: h.264,4 827 Кбит/с, 1280x544
Аудио#1: Русский, (AC3, 2 ch, 384 Кбит/с)
скриншот  скриншот  скриншот  

Общее
Уникальный идентификатор : 230170272986342406866052608000147276819 (0xAD292E9E72944F8692A6603081274413)
Полное имя : D:\Mountain.Fever.2O17.P.WEB-DL.72Op.mkv
Формат : Matroska
Версия формата : Version 2
Размер файла : 2,86 Гбайт
Продолжительность : 1 ч. 18 м.
Режим общего битрейта : Переменный
Общий поток : 5213 Кбит/сек
Дата кодирования : UTC 2018-10-31 20:33:40
Программа кодирования : mkvmerge v8.3.0 ('Over the Horizon') 64bit
Библиотека кодирования : libebml v1.3.1 + libmatroska v1.4.2

Видео
Идентификатор : 1
Формат : AVC
Формат/Информация : Advanced Video Codec
Профиль формата : High@L4.1
Параметр CABAC формата : Да
Параметр RefFrames формата : 4 кадра
Идентификатор кодека : V_MPEG4/ISO/AVC
Продолжительность : 1 ч. 18 м.
Вид битрейта : Переменный
Битрейт : 4827 Кбит/сек
Максимальный битрейт : 5500 Кбит/сек
Ширина : 1280 пикселей
Высота : 544 пикселя
Соотношение сторон : 2,35:1
Режим частоты кадров : Постоянный
Частота кадров : 23,976 (24000/1001) кадра/сек
Стандарт вещания : Component
Цветовое пространство : YUV
Субдискретизация насыщенности : 4:2:0
Битовая глубина : 8 бит
Тип развёртки : Прогрессивная
Бит/(Пиксели*Кадры) : 0.283
Размер потока : 2,60 Гбайт (91%)
Default : Да
Forced : Нет
Цветовой диапазон : Limited
Основные цвета : BT.709
Характеристики трансфера : BT.709
Коэффициенты матрицы : BT.709

Аудио
Идентификатор : 2
Формат : AC-3
Формат/Информация : Audio Coding 3
Расширение режима : CM (complete main)
Параметр Endianness формата : Big
Идентификатор кодека : A_AC3
Продолжительность : 1 ч. 18 м.
Вид битрейта : Постоянный
Битрейт : 384 Кбит/сек
Каналы : 2 канала
Расположение каналов : Front: L R
Частота : 48,0 КГц
Частота кадров : 31,250 кадров/сек (1536 spf)
Метод сжатия : С потерями
Размер потока : 216 Мбайт (7%)
Default : Да
Forced : Нет

pb.wtf



Скачать Горная лихорадка через торрент https://b.radikal.ru/b35/1811/75/d0598c1ddfdd.jpg Скачать фильм Горная лихорадка через торрент бесплантно в хорошем качестве Описание: Оказавшись в заложникам в своём же доме, неумелый англичанин вынужден объединиться со своим захватчиком, чтобы вместе отбиваться ... 10 10 4
Торрент: Зарегистрирован [2018-11-01 07:17] · скачан: 37 раз
Статус: T временная
Размер: 2.86 GB
Как cкачать? Как скачать Горная лихорадка через торрент | qTorrent

% Раздел Тема Автор DL S | L
T Фильмы (мультфильмы) cо спонсором показа (Новинки AVI/MKV) [ 1.35 GB ] Горная лихорадка / Mountain Fever [2017 WEB-DLRip] MVO ["Синема УС"] bober100 Скачать
1 | 0

28-11-2019 20:33  

Отключить всю рекламу на сайте

    Дорогой пользователь! Огромная просьба, поблагодарите релизера, оцените раздачу и оставьте свои комментарий, если Вы скачали Горная лихорадка через торрент бесплатно! Внесите свою лепту в развитие PiratBit!
    Комментировать посты могут только пользователи прошедшие не сложную регистрацию
    Показать сообщения:    

    Горная лихорадка через торрент
    Скачать бесплатно Горная лихорадка
    Горная лихорадка скачать торрент
    Горная лихорадка смотреть онлайн
    Cкачать фильм Горная лихорадка бесплатно
    Горная лихорадка скачать торрент в хорошем качестве
    Горная лихорадка смотреть онлайн бесплатно в хорошем качестве


    Вы не можете начинать темы
    Вы не можете отвечать на сообщения
    Вы не можете редактировать свои сообщения
    Вы не можете удалять свои сообщения
    Вы не можете голосовать в опросах
    Вы не можете прикреплять файлы к сообщениям
    Вы можете скачивать файлы