1 сезон

3 сезон

iTunes

1

iTunes

DUB Netflix

iTunes

13

1 сезон

RePack

30

Deluxe

pack

Легкие деньги

ВАЖНО

ИГРА 18+

pack

RePack

MK11

RePack

jed

RePack

fifa19

RePack

RDR2

RePack

NEED FOR SPEED™ PAYBACK

4 сезон

9 сезон

Бесстыжие 9 сезон

Все сериалы

все сериалы на PB.wtf

RePack

FAR CRY 5

Anonymous, добрый вечер, мы не успеваем до 1 числа собрать деньги на оплату серверов, помогите нам пожалуйста в это трудное время. В качестве благодарности мы отключим Вам всю рекламу на сайте (укажите свой ник в строку Ваше имя)!

×
  
Magnet ссылка

Жених без диплома (Леван Хотивари) [1961, СССР, мелодрама, комедия, SATRip от AVP Studio] pb.wtf

Жених без диплома через торрент pb.wtf

Размер: 745 MB | Добавлен: 2 года 7 мес. назад | Торрент скачан:8 раз
Скачать  

01-11-2018 09:24 Жених без диплома Скачать торрент  

Жених без диплома
Страна: СССР
Производство: Грузия-фильм

Жанр: мелодрама, комедия
Год выпуска: 1961
Продолжительность: 01:11:39

Перевод: Не требуется
Cубтитры: нет
Оригинальная аудиодорожка: русский

Режиссер: Леван Хотивари

В ролях:
Коте Мгалоблишвили, Дудухана Церодзе, Белла Мирианашвили, Акакий (Како) Кванталиани, Вахтанг Нинуа, Тенгиз Майсурадзе, Давид (Додо) Абашидзе, Занда Иоселиани, Акакий Васадзе, Реваз Хобуа, Александр (Сандро) Жоржолиани, Генриетта Лежава, Абессалом Лория...
Об актёрах подробней

Описание:
Беспечного сельского парня Бичико всё село считает бездельником, что очень огорчает его мать. Учёбе он предпочитает ухаживание за своей возлюбленной Нани, которая ему дороже всего на свете. Отец Нани - Варден и слышать не хочет о женихе без диплома для своей дочери. Он выбрал ей в женихи агронома, по имени Николоз. Бичико решает похитить Нани, но случайно вместо девушки он похищает её отца. Несмотря на данную путаницу, дело оборачивается в пользу Бичико, так как в самый трудный момент он объявляется спасителем отца возлюбленной. Варден наконец понимает, что Бичико добрый, отзывчивый парень и уже не настроен против Бичико, будущего зятя.

Исходник: DVB
Качество видео: SATRip
Формат видео: AVI

Видео: 704x528 (4:3), 25,000 кадров/сек, XviD ~ 1252 kbps avg, 0.135 bit/pixel
Аудио: 48 kHz, Dolby Digital AC3 2.0, 192 kbps

Раздача от:
Общее
Полное имя : ZHenih.bez.diploma.1961.SATRip_[New-team]_by_AVP_Studio.avi
Формат : AVI
Формат/Информация : Audio Video Interleave
Размер файла : 745 Мбайт
Продолжительность : 1 ч. 11 м.
Общий поток : 1454 Кбит/сек
Программа кодирования : VirtualDubMod 1.5.10.3 | www.virtualdub-fr.org || (build 2550/release)
Библиотека кодирования : VirtualDubMod build 2550/release

Видео
Идентификатор : 0
Формат : MPEG-4 Visual
Профиль формата : Advanced Simple@L5
Настройки формата : BVOP1 / Custom Matrix
Параметр BVOP формата : 1
Параметр QPel формата : Нет
Параметр GMC формата : Без точки перехода
Параметр матрицы формата : Выборочная
Идентификатор кодека : XVID
Идентификатор кодека/Подсказка : XviD
Продолжительность : 1 ч. 11 м.
Битрейт : 1252 Кбит/сек
Ширина : 704 пикселя
Высота : 528 пикселей
Соотношение сторон : 4:3
Частота кадров : 25,000 кадров/сек
Цветовое пространство : YUV
Субдискретизация насыщенности : 4:2:0
Битовая глубина : 8 бит
Тип развёртки : Прогрессивная
Метод сжатия : С потерями
Бит/(Пиксели*Кадры) : 0.135
Размер потока : 642 Мбайт (86%)
Библиотека кодирования : XviD 73

Аудио
Идентификатор : 1
Формат : AC-3
Формат/Информация : Audio Coding 3
Коммерческое название : Dolby Digital
Идентификатор кодека : 2000
Продолжительность : 1 ч. 11 м.
Вид битрейта : Постоянный
Битрейт : 192 Кбит/сек
Каналы : 2 канала
Channel layout : L R
Частота : 48,0 КГц
Частота кадров : 31,250 кадров/сек (1536 SPF)
Битовая глубина : 16 бит
Метод сжатия : С потерями
Размер потока : 98,4 Мбайт (13%)
Выравнивание : Разделение по промежуткам
Продолжительность промежутка : 40 мс. (1,00 видеокадр)
Время предзагрузки промежутка : 500 мс
pb.wtf



Скачать Жених без диплома через торрент http://picplus.ru/img/1810/31/ae72f462.png Скачать фильм Жених без диплома через торрент бесплантно в хорошем качестве Описание:Беспечного сельского парня Бичико всё село считает бездельником, что очень огорчает его мать. Учёбе он предпочитает ухаживание за ... 10 10 2
Info! Золотая раздача, скачанное не засчитывается.
Торрент: Зарегистрирован [2018-11-01 09:24] · скачан: 8 раз
Статус: √ проверено
Размер: 745 MB
Как cкачать? Как скачать Жених без диплома через торрент | UTorrent

% Раздел Тема Автор DL S | L
Кино СССР [ 1.09 GB ] Жених без диплома [1961 СССР SATRip-AVC от AVP Studio] AVP Studio Скачать
1 | 0

28-11-2019 20:33  

Отключить всю рекламу на сайте

    Дорогой пользователь! Огромная просьба, поблагодарите релизера, оцените раздачу и оставьте свои комментарий, если Вы скачали Жених без диплома через торрент бесплатно! Внесите свою лепту в развитие PiratBit!
    Комментировать посты могут только пользователи прошедшие не сложную регистрацию
    Показать сообщения:    

    Жених без диплома через торрент
    Скачать бесплатно Жених без диплома
    Жених без диплома скачать торрент
    Жених без диплома смотреть онлайн
    Cкачать фильм Жених без диплома бесплатно
    Жених без диплома скачать торрент в хорошем качестве
    Жених без диплома смотреть онлайн бесплатно в хорошем качестве


    Вы не можете начинать темы
    Вы не можете отвечать на сообщения
    Вы не можете редактировать свои сообщения
    Вы не можете удалять свои сообщения
    Вы не можете голосовать в опросах
    Вы не можете прикреплять файлы к сообщениям
    Вы можете скачивать файлы