новый адрес
Мега распродажа FORZA HORIZON 4 ULTIMATE+ВСЕ DLC+ОНЛАЙН всего за 499р. 349 руб. (супер цена). Внимание количество ограничено!!!

iTunes

1+1

iTunes

мы

iTunes

1

iTunes

Чернобыль

iTunes

Ральф против интернета

Лицензия

ПШазам

Лицензия

Оно 2

Лицензия

30
pack

ВАЖНО

!!Акция!!

Alien_RageХит недели

RePack

Resident Evil 21

ИГРА 18+

pack

RePack

jed

!!Акция!!

Alien_Rage

RePack

fifa19

RePack

Assassins Creed: Odyssey

RePack

NEED FOR SPEED™ PAYBACK

3 сезон

9 сезон

Бесстыжие 9 сезон

Все сериалы

все сериалы на PB.wtf

RePack

FAR CRY 5
Ребята, катастрофически не хватает 1900р. для оплаты серверов за Октябрь (всвязи с блокировками трафик упал в 3 раза), 1-2р., выручайте.
  

Жених без диплома (Леван Хотивари) [1961, СССР, мелодрама, комедия, SATRip-AVC от AVP Studio] pb.wtf

Жених без диплома через торрент pb.wtf

Размер: 1.09 GB | Добавлен: 1 год назад | Торрент скачан:11 раз
Скачать  

01-11-2018 09:26 Жених без диплома Скачать торрент  

Жених без диплома
Страна: СССР
Производство: Грузия-фильм

Жанр: мелодрама, комедия
Год выпуска: 1961
Продолжительность: 01:11:39

Перевод: Не требуется
Cубтитры: нет
Оригинальная аудиодорожка: русский

Режиссер: Леван Хотивари

В ролях:
Коте Мгалоблишвили, Дудухана Церодзе, Белла Мирианашвили, Акакий (Како) Кванталиани, Вахтанг Нинуа, Тенгиз Майсурадзе, Давид (Додо) Абашидзе, Занда Иоселиани, Акакий Васадзе, Реваз Хобуа, Александр (Сандро) Жоржолиани, Генриетта Лежава, Абессалом Лория...
Об актёрах подробней

Описание:
Беспечного сельского парня Бичико всё село считает бездельником, что очень огорчает его мать. Учёбе он предпочитает ухаживание за своей возлюбленной Нани, которая ему дороже всего на свете. Отец Нани - Варден и слышать не хочет о женихе без диплома для своей дочери. Он выбрал ей в женихи агронома, по имени Николоз. Бичико решает похитить Нани, но случайно вместо девушки он похищает её отца. Несмотря на данную путаницу, дело оборачивается в пользу Бичико, так как в самый трудный момент он объявляется спасителем отца возлюбленной. Варден наконец понимает, что Бичико добрый, отзывчивый парень и уже не настроен против Бичико, будущего зятя.

Исходник: DVB
Качество видео: SATRip-AVC
Формат видео: MKV

Видео: 704->760x570 (4:3), 25,000 кадров/сек, H264 ~ 1982 kbps avg, 0.198 bit/pixel
Аудио: 48 kHz, Dolby Digital AC3 2.0, 192 kbps

Раздача от:
Общее
Полное имя : ZHenih.bez.diploma.1961.SATRip-AVC_[New-team]_by_AVP_Studio.mkv
Формат : Matroska
Версия формата : Version 2
Размер файла : 1,09 Гбайт
Продолжительность : 1 ч. 11 м.
Общий поток : 2176 Кбит/сек
Дата кодирования : UTC 2018-10-26 01:57:45
Программа кодирования : mkvmerge v6.1.0 ('Old Devil') built on Mar 4 2013 09:10:42
Библиотека кодирования : libebml v1.3.0 + libmatroska v1.4.0

Видео
Идентификатор : 1
Формат : AVC
Формат/Информация : Advanced Video Codec
Профиль формата : High@L4.1
Настройки формата : CABAC / 10 Ref Frames
Параметр CABAC формата : Да
Параметр RefFrames формата : 10 кадров
Идентификатор кодека : V_MPEG4/ISO/AVC
Продолжительность : 1 ч. 11 м.
Битрейт : 1982 Кбит/сек
Ширина : 704 пикселя
Высота : 570 пикселей
Соотношение сторон : 4:3
Режим частоты кадров : Постоянный
Частота кадров : 25,000 кадров/сек
Цветовое пространство : YUV
Субдискретизация насыщенности : 4:2:0
Битовая глубина : 8 бит
Тип развёртки : Прогрессивная
Бит/(Пиксели*Кадры) : 0.198
Размер потока : 994 Мбайт (89%)
Библиотека кодирования : x264 core 157 r2932 303c484
Настройки программы : cabac=1 / ref=10 / deblock=1:-2:-1 / analyse=0x3:0x113 / me=umh / subme=10 / psy=1 / psy_rd=1.00:0.00 / mixed_ref=1 / me_range=32 / chroma_me=1 / trellis=2 / 8x8dct=1 / cqm=0 / deadzone=21,11 / fast_pskip=1 / chroma_qp_offset=-2 / threads=6 / lookahead_threads=1 / sliced_threads=0 / nr=0 / decimate=0 / interlaced=0 / bluray_compat=0 / constrained_intra=0 / bframes=8 / b_pyramid=2 / b_adapt=2 / b_bias=0 / direct=3 / weightb=1 / open_gop=0 / weightp=2 / keyint=250 / keyint_min=25 / scenecut=40 / intra_refresh=0 / rc=2pass / mbtree=0 / bitrate=1982 / ratetol=1.0 / qcomp=0.60 / qpmin=0 / qpmax=69 / qpstep=4 / cplxblur=20.0 / qblur=0.5 / ip_ratio=1.40 / pb_ratio=1.30 / aq=1:1.00
Default : Да
Forced : Нет

Аудио
Идентификатор : 2
Формат : AC-3
Формат/Информация : Audio Coding 3
Коммерческое название : Dolby Digital
Идентификатор кодека : A_AC3
Продолжительность : 1 ч. 11 м.
Вид битрейта : Постоянный
Битрейт : 192 Кбит/сек
Каналы : 1 канал
Channel layout : C
Частота : 48,0 КГц
Частота кадров : 31,250 кадров/сек (1536 SPF)
Битовая глубина : 16 бит
Метод сжатия : С потерями
Размер потока : 98,4 Мбайт (9%)
Default : Да
Forced : Нет
pb.wtf



Скачать Жених без диплома через торрент http://picplus.ru/img/1810/31/ae72f462.png Скачать фильм Жених без диплома через торрент бесплантно в хорошем качестве Описание:Беспечного сельского парня Бичико всё село считает бездельником, что очень огорчает его мать. Учёбе он предпочитает ухаживание за ... 10 10 1
Info! Золотая раздача, скачанное не засчитывается.
Торрент: Зарегистрирован [2018-11-01 09:26] · скачан: 11 раз
Статус: √ проверено
Размер: 1.09 GB
Как cкачать? Как скачать Жених без диплома через торрент | qTorrent

% Раздел Тема Автор DL S | L
Кино СССР [ 745 MB ] Жених без диплома [1961 СССР SATRip от AVP Studio] AVP Studio Скачать
1 | 0


>> Регистрируемся здесь <<






Отзывы и комментарии о схеме читаем и пишем здесь: ---> Отзывы и комментарии о схеме

Новые благодарочки в телеграм довольных пользователей:
скриншот   скриншот   скриншот   скриншот   скриншот
    Дорогой пользователь! Огромная просьба, поблагодарите релизера, оцените раздачу и оставьте свои комментарий, если Вы скачали Жених без диплома через торрент бесплатно! Внесите свою лепту в развитие PiratBit!
    Комментировать посты могут только пользователи прошедшие не сложную регистрацию
    Показать сообщения:    

    Жених без диплома через торрент
    Скачать бесплатно Жених без диплома
    Жених без диплома скачать торрент
    Жених без диплома смотреть онлайн
    Cкачать фильм Жених без диплома бесплатно
    Жених без диплома скачать торрент в хорошем качестве
    Жених без диплома смотреть онлайн бесплатно в хорошем качестве


    Вы не можете начинать темы
    Вы не можете отвечать на сообщения
    Вы не можете редактировать свои сообщения
    Вы не можете удалять свои сообщения
    Вы не можете голосовать в опросах
    Вы не можете прикреплять файлы к сообщениям
    Вы можете скачивать файлы