Ссылка на приватное зеркало всего за 1$. Внимание количество ограничено!!!

OK

1+1

iTunes

мы

OK

1

WEB-DLRip

Джокер

Пифагор

Ведьмак / The Witcher сериал

iTunes

ПШазам

ОК

Оно 2

iTunes

30
pack

Вам бонус

ВАЖНО

!!Акция!!

Alien_RageХит недели

RePack

Resident Evil 21

ИГРА 18+

pack

RePack

jed

RePack

fifa19

RePack

Assassins Creed: Odyssey

RePack

NEED FOR SPEED™ PAYBACK

4 сезон

9 сезон

Бесстыжие 9 сезон

Все сериалы

все сериалы на PB.wtf

RePack

FAR CRY 5
  

Адам Сэндлер : Свеж на 100% / Adam Sandler: 100% Fresh (Стивен Брилл, Николаус Гуссен) [2018, комедия, WEB-DL 720p] MVO ["Синема УС"] pb.wtf

Адам Сэндлер : Свеж на 100% через торрент pb.wtf

Раздают: 1 [ 0 KB/s ]
Размер: 2.71 GB | Добавлен: 1 год 2 мес. назад | Торрент скачан:107 раз
Скачать  

01-11-2018 10:11 Адам Сэндлер : Свеж на 100% Скачать торрент  

Адам Сэндлер : Свеж на 100% / Adam Sandler: 100% FreshГод выпуска: 2018
Страна: США
Жанр: комедия
Продолжительность: 01:14:47
Перевод: Любительский (многоголосый) | "Синема УС"
Субтитры: отсутствуют

Режиссер: Стивен Брилл, Николаус Гуссен

rating

В ролях:

Адам Сэндлер, Роб Шнайдер, Дэн Булла

Описание:

Адам Сэндлер возвращается к музыкальным номерам, от комедийных клубов до концертных залов и даже ничего не подозревающей станции метро.

Качество: WEB-DL 720p
Формат: MKV

Видео: h.264, 4 801 Кбит/с, 1280x720
Аудио#1: Русский, (AC3, 2 ch, 384 Кбит/с)
скриншот  скриншот  скриншот  

Общее
Уникальный идентификатор : 200620480141251964077778655103130063426 (0x96EE19591F2352E1AF0C0E4D2730D242)
Полное имя : D:\Adam.Sandler.100.Percent.Fresh.2O18.P.WEB-DL.72Op.mkv
Формат : Matroska
Версия формата : Version 2
Размер файла : 2,71 Гбайт
Продолжительность : 1 ч. 14 м.
Режим общего битрейта : Переменный
Общий поток : 5187 Кбит/сек
Дата кодирования : UTC 2018-10-31 19:34:54
Программа кодирования : mkvmerge v8.3.0 ('Over the Horizon') 64bit
Библиотека кодирования : libebml v1.3.1 + libmatroska v1.4.2

Видео
Идентификатор : 1
Формат : AVC
Формат/Информация : Advanced Video Codec
Профиль формата : High@L4.1
Параметр CABAC формата : Да
Параметр RefFrames формата : 4 кадра
Идентификатор кодека : V_MPEG4/ISO/AVC
Продолжительность : 1 ч. 14 м.
Вид битрейта : Переменный
Битрейт : 4801 Кбит/сек
Максимальный битрейт : 5500 Кбит/сек
Ширина : 1280 пикселей
Высота : 720 пикселей
Соотношение сторон : 16:9
Режим частоты кадров : Постоянный
Частота кадров : 23,976 (24000/1001) кадра/сек
Стандарт вещания : Component
Цветовое пространство : YUV
Субдискретизация насыщенности : 4:2:0
Битовая глубина : 8 бит
Тип развёртки : Прогрессивная
Бит/(Пиксели*Кадры) : 0.213
Размер потока : 2,45 Гбайт (91%)
Default : Да
Forced : Нет
Цветовой диапазон : Limited
Основные цвета : BT.709
Характеристики трансфера : BT.709
Коэффициенты матрицы : BT.709

Аудио
Идентификатор : 2
Формат : AC-3
Формат/Информация : Audio Coding 3
Расширение режима : CM (complete main)
Параметр Endianness формата : Big
Идентификатор кодека : A_AC3
Продолжительность : 1 ч. 14 м.
Вид битрейта : Постоянный
Битрейт : 384 Кбит/сек
Каналы : 2 канала
Расположение каналов : Front: L R
Частота : 48,0 КГц
Частота кадров : 31,250 кадров/сек (1536 spf)
Метод сжатия : С потерями
Размер потока : 205 Мбайт (7%)
Default : Да
Forced : Нет

pb.wtf



Скачать Адам Сэндлер : Свеж на 100% через торрент http://pic1.kartinco.top/images/11/6y9ux.jpg Скачать фильм Адам Сэндлер : Свеж на 100% через торрент бесплантно в хорошем качестве Описание: Адам Сэндлер возвращается к музыкальным номерам, от комедийных клубов до концертных залов и даже ничего не подозревающей станции ... 10 10 5
Торрент: Зарегистрирован [2018-11-01 10:11] · скачан: 107 раз
Статус: T временная
Размер: 2.71 GB
Как cкачать? Как скачать Адам Сэндлер : Свеж на 100% через торрент | qTorrent

% Раздел Тема Автор DL S | L
T Фильмы (мультфильмы) cо спонсором показа (Новинки AVI/MKV) [ 1.34 GB ] Адам Сэндлер : Свеж на 100% / Adam Sandler: 100% Fresh [2018 WEBRip Любительский ] oleg8 Скачать
2 | 0

28-11-2019 20:33  

Отключить всю рекламу на сайте

01-11-2018 14:30 Адам Сэндлер : Свеж на 100% Скачать торрент  

как постарел то...капецpb.wtf



    Дорогой пользователь! Огромная просьба, поблагодарите релизера, оцените раздачу и оставьте свои комментарий, если Вы скачали Адам Сэндлер : Свеж на 100% через торрент бесплатно! Внесите свою лепту в развитие PiratBit!
    Комментировать посты могут только пользователи прошедшие не сложную регистрацию
    Показать сообщения:    

    Адам Сэндлер : Свеж на 100% через торрент
    Скачать бесплатно Адам Сэндлер : Свеж на 100%
    Адам Сэндлер : Свеж на 100% скачать торрент
    Адам Сэндлер : Свеж на 100% смотреть онлайн
    Cкачать фильм Адам Сэндлер : Свеж на 100% бесплатно
    Адам Сэндлер : Свеж на 100% скачать торрент в хорошем качестве
    Адам Сэндлер : Свеж на 100% смотреть онлайн бесплатно в хорошем качестве


    Вы не можете начинать темы
    Вы не можете отвечать на сообщения
    Вы не можете редактировать свои сообщения
    Вы не можете удалять свои сообщения
    Вы не можете голосовать в опросах
    Вы не можете прикреплять файлы к сообщениям
    Вы можете скачивать файлы