Ссылка на приватное зеркало всего за 1$. Внимание количество ограничено!!!

OK

1+1

iTunes

мы

OK

1

WEB-DLRip

Джокер

Пифагор

Ведьмак / The Witcher сериал

iTunes

ПШазам

ОК

Оно 2

iTunes

30
pack

Вам бонус

ВАЖНО

!!Акция!!

Alien_RageХит недели

RePack

Resident Evil 21

ИГРА 18+

pack

RePack

jed

RePack

fifa19

RePack

Assassins Creed: Odyssey

RePack

NEED FOR SPEED™ PAYBACK

4 сезон

9 сезон

Бесстыжие 9 сезон

Все сериалы

все сериалы на PB.wtf

RePack

FAR CRY 5
  

Ловец демонов / Demon Catcher (Лю Сюаньди) [2018, Комедия, фэнтези, WEB-DL 720p] MVO [КОЛОБОК] pb.wtf

Ловец демонов через торрент pb.wtf

Размер: 2.73 GB | Добавлен: 1 год 2 мес. назад | Торрент скачан:91 раз
Скачать  

01-11-2018 11:03 Ловец демонов Скачать торрент  

Ловец демонов / Demon CatcherГод выпуска: 2018
Страна: Китай
Жанр: Комедия, фэнтези
Продолжительность: 01:18:50
Перевод: Любительский (многоголосый) | КОЛОБОК
Субтитры: отсутствуют

Режиссер: Лю Сюаньди



В ролях:

Люн Ка-Янь, Линь Фэнъе, Билли Лау, Фу Хэаньци

Описание:

Романтическая интерпретация, рассказывает три историю, о борьбе вблизи, тяжелые времена, странная, бесконечная нечисть, поколение Гуань Уоррен, три темы с «демонами», «сдерживанием» и «причинностью». У всех есть реинкарнация, и правильный путь, доброжелателя...

Качество: WEB-DL 720p
Формат: MKV

Видео: h.264, 4 561 Кбит/с, 1280x538
Аудио#1: Русский, (AC3, 2 ch, 384 Кбит/с)
скриншот  скриншот  скриншот  

Общее
Уникальный идентификатор : 227910971083628270237112386606383046323 (0xAB760E6F575F029A96180CF3974D1EB3)
Полное имя : D:\Demon.catcher.2o18.Pk.WEB-DL.72Op.mkv
Формат : Matroska
Версия формата : Version 2
Размер файла : 2,73 Гбайт
Продолжительность : 1 ч. 18 м.
Режим общего битрейта : Переменный
Общий поток : 4947 Кбит/сек
Дата кодирования : UTC 2018-10-31 11:00:48
Программа кодирования : mkvmerge v8.3.0 ('Over the Horizon') 64bit
Библиотека кодирования : libebml v1.3.1 + libmatroska v1.4.2

Видео
Идентификатор : 1
Формат : AVC
Формат/Информация : Advanced Video Codec
Профиль формата : High@L4.1
Параметр CABAC формата : Да
Параметр RefFrames формата : 4 кадра
Идентификатор кодека : V_MPEG4/ISO/AVC
Продолжительность : 1 ч. 18 м.
Вид битрейта : Переменный
Битрейт : 4561 Кбит/сек
Максимальный битрейт : 5000 Кбит/сек
Ширина : 1280 пикселей
Высота : 538 пикселей
Соотношение сторон : 2,40:1
Режим частоты кадров : Постоянный
Частота кадров : 23,976 (24000/1001) кадра/сек
Стандарт вещания : Component
Цветовое пространство : YUV
Субдискретизация насыщенности : 4:2:0
Битовая глубина : 8 бит
Тип развёртки : Прогрессивная
Бит/(Пиксели*Кадры) : 0.270
Размер потока : 2,46 Гбайт (90%)
Default : Да
Forced : Нет
Цветовой диапазон : Limited
Основные цвета : BT.709
Характеристики трансфера : BT.709
Коэффициенты матрицы : BT.709

Аудио
Идентификатор : 2
Формат : AC-3
Формат/Информация : Audio Coding 3
Расширение режима : CM (complete main)
Параметр Endianness формата : Big
Идентификатор кодека : A_AC3
Продолжительность : 1 ч. 18 м.
Вид битрейта : Постоянный
Битрейт : 384 Кбит/сек
Каналы : 2 канала
Расположение каналов : Front: L R
Частота : 48,0 КГц
Частота кадров : 31,250 кадров/сек (1536 spf)
Метод сжатия : С потерями
Размер потока : 217 Мбайт (8%)
Default : Да
Forced : Нет

pb.wtf



Скачать Ловец демонов через торрент https://d.radikal.ru/d30/1811/b1/b61bb6452b7f.jpg Скачать фильм Ловец демонов через торрент бесплантно в хорошем качестве Описание: Романтическая интерпретация, рассказывает три историю, о борьбе вблизи, тяжелые времена, странная, бесконечная нечисть, поколение ... 10 10 2
Торрент: Зарегистрирован [2018-11-01 11:03] · скачан: 91 раз
Статус: T временная
Размер: 2.73 GB
Как cкачать? Как скачать Ловец демонов через торрент | qTorrent

% Раздел Тема Автор DL S | L
T Фильмы (мультфильмы) cо спонсором показа (Новинки AVI/MKV) [ 1.37 GB ] Ловец демонов / Demon Catcher [2018 WEB-DLRip] MVO [КОЛОБОК] bober100 Скачать
1 | 0

28-11-2019 20:33  

Отключить всю рекламу на сайте

01-11-2018 11:36 Ловец демонов Скачать торрент  

Джеки Чана нет! Смотреть не буду)pb.wtf



01-11-2018 11:49 Ловец демонов Скачать торрент  

...рассказывает три историю... по аккуратнее с китайским)))pb.wtf



01-11-2018 16:55 Ловец демонов Скачать торрент  

Что то мне эта аннотация напоминает.... Аааа, корявые инструкции от дешевых китайских товаров! :-)pb.wtf



    Дорогой пользователь! Огромная просьба, поблагодарите релизера, оцените раздачу и оставьте свои комментарий, если Вы скачали Ловец демонов через торрент бесплатно! Внесите свою лепту в развитие PiratBit!
    Комментировать посты могут только пользователи прошедшие не сложную регистрацию
    Показать сообщения:    

    Ловец демонов через торрент
    Скачать бесплатно Ловец демонов
    Ловец демонов скачать торрент
    Ловец демонов смотреть онлайн
    Cкачать фильм Ловец демонов бесплатно
    Ловец демонов скачать торрент в хорошем качестве
    Ловец демонов смотреть онлайн бесплатно в хорошем качестве


    Вы не можете начинать темы
    Вы не можете отвечать на сообщения
    Вы не можете редактировать свои сообщения
    Вы не можете удалять свои сообщения
    Вы не можете голосовать в опросах
    Вы не можете прикреплять файлы к сообщениям
    Вы можете скачивать файлы