Ссылка на приватное зеркало всего за 1$. Внимание количество ограничено!!!

OK

1+1

iTunes

мы

OK

1

WEB-DLRip

Джокер

Пифагор

Ведьмак / The Witcher сериал

iTunes

ПШазам

ОК

Оно 2

iTunes

30
pack

Вам бонус

ВАЖНО

!!Акция!!

Alien_RageХит недели

RePack

Resident Evil 21

ИГРА 18+

pack

RePack

jed

RePack

fifa19

RePack

Assassins Creed: Odyssey

RePack

NEED FOR SPEED™ PAYBACK

4 сезон

9 сезон

Бесстыжие 9 сезон

Все сериалы

все сериалы на PB.wtf

RePack

FAR CRY 5
  

Дикие мальчишки / Les garçons sauvages / The Wild Boys (Бертран Мандико) [2017, фэнтези, драма, детектив, приключения, WEB-DL 720p] MVO [КОЛОБОК] pb.wtf

Дикие мальчишки через торрент pb.wtf

Размер: 4.08 GB | Добавлен: 1 год 2 мес. назад | Торрент скачан:40 раз
Скачать  

01-11-2018 14:17 Дикие мальчишки Скачать торрент  

Дикие мальчишки / Les garçons sauvages / The Wild BoysГод выпуска: 2017
Страна: Франция
Жанр: фэнтези, драма, детектив, приключения
Продолжительность: 01:51:23
Перевод: Любительский (многоголосый) | КОЛОБОК
Субтитры: корейские (вшитые)

Режиссер: Бертран Мандико

rating

В ролях:

Полин Лорийяр, Вимала Понс, Диана Руксель, Анаель Сноек, Матильда Варнье, Сэм Лаувейк, Элина Ловенсон, Натали Ришар, Кристоф Биер, Марго Фабре

Описание:

В начале 20 века на острове Ла-Реюньон пять подростков из хорошей семьи, одержимые оккультизмом, совершили жестокое преступление. Голландский капитан берет их в вынужденный круиз на своем ветхом паруснике. Измученные порядками капитана, пятеро мальчиков готовятся к мятежу. Их цель - сверхъестественный остров богатый флорой и колдовскими силами.

Качество: WEB-DL 720p
Формат: MKV

Видео: h.264,4 859 Кбит/с, 1280x772
Аудио#1: Русский, (AC3, 2 ch, 384 Кбит/с)
скриншот  скриншот  скриншот  

Общее
Уникальный идентификатор : 186935158207045476282847459946004979059 (0x8CA266E1EEF90403808CC6E36DA79D73)
Полное имя : D:\The.Wild.Boys.2O18.Pk.WEB-DL.72Op.mkv
Формат : Matroska
Версия формата : Version 2
Размер файла : 4,08 Гбайт
Продолжительность : 1 ч. 51 м.
Режим общего битрейта : Переменный
Общий поток : 5245 Кбит/сек
Дата кодирования : UTC 2018-10-31 05:33:31
Программа кодирования : mkvmerge v8.3.0 ('Over the Horizon') 64bit
Библиотека кодирования : libebml v1.3.1 + libmatroska v1.4.2

Видео
Идентификатор : 1
Формат : AVC
Формат/Информация : Advanced Video Codec
Профиль формата : High@L4.1
Параметр CABAC формата : Да
Параметр RefFrames формата : 4 кадра
Идентификатор кодека : V_MPEG4/ISO/AVC
Продолжительность : 1 ч. 51 м.
Вид битрейта : Переменный
Битрейт : 4859 Кбит/сек
Максимальный битрейт : 5500 Кбит/сек
Ширина : 1280 пикселей
Высота : 772 пикселя
Соотношение сторон : 5:3
Режим частоты кадров : Постоянный
Частота кадров : 23,976 (24000/1001) кадра/сек
Стандарт вещания : Component
Цветовое пространство : YUV
Субдискретизация насыщенности : 4:2:0
Битовая глубина : 8 бит
Тип развёртки : Прогрессивная
Бит/(Пиксели*Кадры) : 0.201
Размер потока : 3,70 Гбайт (91%)
Default : Да
Forced : Нет
Цветовой диапазон : Limited
Основные цвета : BT.709
Характеристики трансфера : BT.709
Коэффициенты матрицы : BT.709

Аудио
Идентификатор : 2
Формат : AC-3
Формат/Информация : Audio Coding 3
Расширение режима : CM (complete main)
Параметр Endianness формата : Big
Идентификатор кодека : A_AC3
Продолжительность : 1 ч. 51 м.
Вид битрейта : Постоянный
Битрейт : 384 Кбит/сек
Каналы : 2 канала
Расположение каналов : Front: L R
Частота : 48,0 КГц
Частота кадров : 31,250 кадров/сек (1536 spf)
Метод сжатия : С потерями
Размер потока : 306 Мбайт (7%)
Default : Да
Forced : Нет

pb.wtf



Скачать Дикие мальчишки через торрент https://b.radikal.ru/b13/1811/85/ca48e9ff3741.jpg Скачать фильм Дикие мальчишки через торрент бесплантно в хорошем качестве Описание: В начале 20 века на острове Ла-Реюньон пять подростков из хорошей семьи, одержимые оккультизмом, совершили жестокое преступление. ... 10 10 2
Торрент: Зарегистрирован [2018-11-01 14:17] · скачан: 40 раз
Статус: T временная
Размер: 4.08 GB
Как cкачать? Как скачать Дикие мальчишки через торрент | qTorrent

% Раздел Тема Автор DL S | L
T Фильмы (мультфильмы) cо спонсором показа (Новинки AVI/MKV) [ 1.37 GB ] Дикие мальчишки / Les garçons sauvages / The Wild Boys [2017 WEB-DLRip] MVO [КОЛОБОК] bober100 Скачать
1 | 0

28-11-2019 20:33  

Отключить всю рекламу на сайте

    Дорогой пользователь! Огромная просьба, поблагодарите релизера, оцените раздачу и оставьте свои комментарий, если Вы скачали Дикие мальчишки через торрент бесплатно! Внесите свою лепту в развитие PiratBit!
    Комментировать посты могут только пользователи прошедшие не сложную регистрацию
    Показать сообщения:    

    Дикие мальчишки через торрент
    Скачать бесплатно Дикие мальчишки
    Дикие мальчишки скачать торрент
    Дикие мальчишки смотреть онлайн
    Cкачать фильм Дикие мальчишки бесплатно
    Дикие мальчишки скачать торрент в хорошем качестве
    Дикие мальчишки смотреть онлайн бесплатно в хорошем качестве


    Вы не можете начинать темы
    Вы не можете отвечать на сообщения
    Вы не можете редактировать свои сообщения
    Вы не можете удалять свои сообщения
    Вы не можете голосовать в опросах
    Вы не можете прикреплять файлы к сообщениям
    Вы можете скачивать файлы