Ссылка на приватное зеркало всего за 1$. Внимание количество ограничено!!!

iTunes

iTunes

iTunes

1

iTunes

iTunes

iTunes

WEBRip

iTunes

30
pack

$ от Little Big

ВАЖНО

!!Акция!!

Alien_RageХит недели

RePack

Resident Evil 21

ИГРА 18+

pack

RePack

jed

!!Акция!!

Alien_Rage

RePack

fifa19

RePack

Assassins Creed: Odyssey

RePack

NEED FOR SPEED™ PAYBACK

4 сезон

9 сезон

Бесстыжие 9 сезон

Все сериалы

все сериалы на PB.wtf

RePack

FAR CRY 5
  

Боевые роботы / Battle Bots (Марк Полония) [2018, Фантастика, WEB-DL 720p] MVO ["Синема УС"] pb.wtf

Боевые роботы через торрент pb.wtf

Размер: 2.76 GB | Добавлен: 1 год 9 мес. назад | Торрент скачан:136 раз
Скачать  

01-11-2018 18:47 Боевые роботы Скачать торрент  

Боевые роботы / Battle BotsГод выпуска: 2018
Страна: США
Жанр: Фантастика
Продолжительность: 01:10:32
Перевод: Любительский (многоголосый) | "Синема УС"
Субтитры: отсутствуют

Режиссер: Марк Полония

rating

В ролях:

Джеймс Кэрол, Мари ДеЛоренцо, Даниэль Донахью, Тим Хэтч, Джеймс Келли, Джефф Киркендалл

Описание:

Планета Земля, 2039 год. Сверхдержавы мира уничтожили почти все континенты ядерной войной. При катастрофе погибли миллиарды людей. Крупные страны отрезаны друг от друга, цивилизация висит на волоске. В США осталось две группировки. Новый Порядок, культ фанатиков, использует доктрину милитаристского рабства и крупных роботов для управления людьми. Ранее они были использованы для добычи ископаемых с центра земли. Другая группа, Борцы, живут как падальщики, избегая войск Нового Порядка. В будущем будет лишь тьма и отсутствие надежды, если только они не найдут способ остановить Новый Порядок от истребления населения.

Качество: WEB-DL 720p
Формат: MKV

Видео: h.264, 5 219 kb/s, 1280x720
Аудио#1: Русский, (AC3, 2 ch, 384 Кбит/с)
скриншот  скриншот  скриншот  

Общее
Уникальный идентификатор : 229575930802064679767294256801721025863 (0xACB6B7496E7B5B1BB2E2C10E1A4F0547)
Полное имя : D:\Battle.Bots.2O18.P.WEB-DL.72Op_KOSHARA.mkv
Формат : Matroska
Версия формата : Version 2
Размер файла : 2,76 Гбайт
Продолжительность : 1 ч. 10 м.
Режим общего битрейта : Переменный
Общий поток : 5605 Кбит/сек
Дата кодирования : UTC 2018-11-01 02:12:33
Программа кодирования : mkvmerge v8.3.0 ('Over the Horizon') 64bit
Библиотека кодирования : libebml v1.3.1 + libmatroska v1.4.2

Видео
Идентификатор : 1
Формат : AVC
Формат/Информация : Advanced Video Codec
Профиль формата : High@L4.1
Параметр CABAC формата : Да
Параметр RefFrames формата : 4 кадра
Идентификатор кодека : V_MPEG4/ISO/AVC
Продолжительность : 1 ч. 10 м.
Вид битрейта : Переменный
Битрейт : 5219 Кбит/сек
Максимальный битрейт : 6000 Кбит/сек
Ширина : 1280 пикселей
Высота : 720 пикселей
Соотношение сторон : 16:9
Режим частоты кадров : Постоянный
Частота кадров : 23,976 (24000/1001) кадра/сек
Стандарт вещания : Component
Цветовое пространство : YUV
Субдискретизация насыщенности : 4:2:0
Битовая глубина : 8 бит
Тип развёртки : Прогрессивная
Бит/(Пиксели*Кадры) : 0.231
Размер потока : 2,52 Гбайт (91%)
Default : Да
Forced : Нет
Цветовой диапазон : Limited
Основные цвета : BT.709
Характеристики трансфера : BT.709
Коэффициенты матрицы : BT.709

Аудио
Идентификатор : 2
Формат : AC-3
Формат/Информация : Audio Coding 3
Расширение режима : CM (complete main)
Параметр Endianness формата : Big
Идентификатор кодека : A_AC3
Продолжительность : 1 ч. 10 м.
Вид битрейта : Постоянный
Битрейт : 384 Кбит/сек
Каналы : 2 канала
Расположение каналов : Front: L R
Частота : 48,0 КГц
Частота кадров : 31,250 кадров/сек (1536 spf)
Метод сжатия : С потерями
Размер потока : 194 Мбайт (7%)
Default : Да
Forced : Нет

pb.wtf



Скачать Боевые роботы через торрент https://b.radikal.ru/b16/1811/86/5df442c1accb.jpg Скачать фильм Боевые роботы через торрент бесплантно в хорошем качестве Описание: Планета Земля, 2039 год. Сверхдержавы мира уничтожили почти все континенты ядерной войной. При катастрофе погибли миллиарды ... 8.7 10 7
Торрент: Зарегистрирован [2018-11-01 18:47] · скачан: 136 раз
Статус: T временная
Размер: 2.76 GB
Как cкачать? Как скачать Боевые роботы через торрент | qTorrent

% Раздел Тема Автор DL S | L
T Фильмы (мультфильмы) cо спонсором показа (Новинки AVI/MKV) [ 1.37 GB ] Боевые роботы / Battle Bots [2018 WEB-DLRip] MVO ["Синема УС"] bober100 Скачать
1 | 0

28-11-2019 20:33  

Отключить всю рекламу на сайте

01-11-2018 19:21 Боевые роботы Скачать торрент  

В корзину... pb.wtf



01-11-2018 20:21 Боевые роботы Скачать торрент  

Единственный там боевой робот это мужик с тройным ипаломpb.wtf



04-11-2018 18:55 Боевые роботы Скачать торрент  

dnipers писал(а):

Единственный там боевой робот это мужик с тройным ипалом

pb.wtf



    Дорогой пользователь! Огромная просьба, поблагодарите релизера, оцените раздачу и оставьте свои комментарий, если Вы скачали Боевые роботы через торрент бесплатно! Внесите свою лепту в развитие PiratBit!
    Комментировать посты могут только пользователи прошедшие не сложную регистрацию
    Показать сообщения:    

    Боевые роботы через торрент
    Скачать бесплатно Боевые роботы
    Боевые роботы скачать торрент
    Боевые роботы смотреть онлайн
    Cкачать фильм Боевые роботы бесплатно
    Боевые роботы скачать торрент в хорошем качестве
    Боевые роботы смотреть онлайн бесплатно в хорошем качестве


    Вы не можете начинать темы
    Вы не можете отвечать на сообщения
    Вы не можете редактировать свои сообщения
    Вы не можете удалять свои сообщения
    Вы не можете голосовать в опросах
    Вы не можете прикреплять файлы к сообщениям
    Вы можете скачивать файлы