Всегда рабочее зеркало без VPN и Proxy просто перед .vidak.icu напиши любое слово или цифру, Пример http://orvz.vidak.icu

Лицензия

MVO

1 сезон

1

1 сезон

iTunes

1 сезон

13

1 сезон

Deluxe

pack

Рекомендуем

Repack

30

ВАЖНО

RePack

MK11

RePack

jed

RePack

fifa19

RePack

RDR2

RePack

NEED FOR SPEED™ PAYBACK

Кинопоиск HD

6 сезон

 Острые козырьки 6 сезон

Все сериалы

все сериалы на PB.wtf

RePack

FAR CRY 5
  
Magnet ссылка

Кредо убийцы / Assassin's Creed (Джастин Курзель) [2016, фантастика, фэнтези, боевик, приключения, UHD BDRemux 2160p] VO+2xAVO+2xDUB (rus, ukr) [Лицензия] pb.wtf

Кредо убийцы через торрент pb.wtf

Размер: 49.69 GB | Добавлен: 3 года 9 мес. назад | Торрент скачан:92 раза
Смотреть онлайн Кредо убийцы | Скачать    Ребята, помогите собрать деньги на оплату серверов!!!

01-11-2018 20:36 Кредо убийцы Скачать торрент  

Кредо убийцы / Assassin's Creed Год выпуска: 2016
Страна: Великобритания, Франция, Гонконг, США, Тайвань, Мальта, Канад
Жанр: фантастика, фэнтези, боевик, приключения
Продолжительность: 01:55:31
Перевод: Дублированный, авторский (одноголосый), любительский (одноголосый)
Субтитры:русские, украинские, английские

Режиссер: Джастин Курзель

rating

В ролях:

Майкл Фассбендер (Cal Lynch / Aguilar), Марион Котийяр (Sofia), Джереми Айронс (Rikkin), Брендан Глисон (Joseph Lynch), Шарлотта Рэмплинг (Ellen Kaye), Майкл Кеннет Уильямс (Moussa), Дени Меноше (McGowen), Ариана Лабед (Maria), Халид Абдалла (Sultan Muhammad XII), Эсси Дэвис (Mary Lynch), Матиас Варела (Emir), Каллум Тернер (Nathan)
Описание:

Благодаря революционным технологиям, позволяющим вызвать в памяти воспоминания прежних поколений, Каллум Линч проживает приключения своего предка Агилара в Испании 15-го века. Каллум узнает, что является потомком членов загадочного тайного общества ассасинов. Накопив невероятные знания и навыки, он вступает в противостояние с могущественной и жестокой организацией тамплиеров в наши дни.

Качество: UHD BDRemux 2160p
Формат: MKV

Видео: MPEG-H HEVC Video / 34.9 Mbps / 3840x2160 / 23.976 fps / 4:2:0 / 10 bits / HDR / BT.2020
Аудио#1: Русский / DTS Audio / 5.1 / 48 kHz / 768 kbps - Дублированный (Blu-Ray EUR)
Аудио#2: Русский / DTS-HD Master Audio / 5.1 / 48 kHz / 3948 kbps - Дублированный + вставки Solod
Аудио#3: Русский / DTS-HD Master Audio / 7.1 / 48 kHz / 5376 kbps - Авторский (Юрий Сербин)
Аудио#4: Русский / DTS-HD Master Audio / 7.1 / 48 kHz / 5358 kbps - Авторский (Юрий Живов)
Аудио#5: Русский / DTS-HD Master Audio / 7.1 / 48 kHz / 5366 kbps - Любительский (Solod)
Аудио#6: Украинский / Dolby Digital Audio / 5.1 / 48 kHz / 448 kbps - Дублированный (Blu-Ray EUR)
Аудио#7: Английский / DTS-HD Master Audio / 7.1 / 48 kHz / 5355 kbps - Оригинальный
скриншот  скриншот  скриншот  

Format : Matroska
Format version : Version 4 / Version 2
File size : 49.7 GiB
Duration : 1 h 55 min
Overall bit rate : 61.6 Mb/s
Movie name : Assassin's Creed (2016) UHD BDRemux 2160p =Ved-Uk=
Encoded date : UTC 2018-11-01 18:54:16
Writing application : mkvmerge v22.0.0 ('At The End Of The World') 64-bit
Writing library : libebml v1.3.5 + libmatroska v1.4.8

Video
ID : 1
Format : HEVC
Format/Info : High Efficiency Video Coding
Format profile : Main [email protected]@High
Codec ID : V_MPEGH/ISO/HEVC
Duration : 1 h 55 min
Bit rate : 34.9 Mb/s
Width : 3 840 pixels
Height : 2 160 pixels
Display aspect ratio : 16:9
Frame rate mode : Constant
Frame rate : 23.976 (24000/1001) FPS
Color space : YUV
Chroma subsampling : 4:2:0 (Type 2)
Bit depth : 10 bits
Bits/(Pixel*Frame) : 0.176
Stream size : 28.2 GiB (57%)
Title : Кредо убийцы / Assassin's Creed (2016)
Writing library : ATEME Titan File 3.7.8 (4.7.8.0)
Language : English
Default : Yes
Forced : No
Color range : Limited
Color primaries : BT.2020
Transfer characteristics : SMPTE ST 2084
Matrix coefficients : BT.2020 non-constant
Mastering display color pri : R: x=0.680000 y=0.320000, G: x=0.265000 y=0.690000, B: x=0.150000 y=0.060000, White point: x=0.312700 y=0.329000
Mastering display luminance : min: 0.0000 cd/m2, max: 1000.0000 cd/m2

Audio #1
ID : 2
Format : DTS
Format/Info : Digital Theater Systems
Mode : 16
Format settings, Endianness : Big
Codec ID : A_DTS
Duration : 1 h 55 min
Bit rate mode : Constant
Bit rate : 768 kb/s
Channel(s) : 6 channels
Channel positions : Front: L C R, Side: L R, LFE
Sampling rate : 48.0 kHz
Frame rate : 93.750 FPS (512 SPF)
Bit depth : 24 bits
Compression mode : Lossy
Stream size : 635 MiB (1%)
Title : Дубляж (Blu-Ray EUR)
Language : Russian
Default : Yes
Forced : No

Audio #2
ID : 3
Format : DTS
Format/Info : Digital Theater Systems
Format profile : MA / Core
Mode : 16
Format settings, Endianness : Big
Codec ID : A_DTS
Duration : 1 h 55 min
Bit rate mode : Variable / Constant
Bit rate : 3 948 kb/s / 1 509 kb/s
Channel(s) : 6 channels
Channel positions : Front: L C R, Side: L R, LFE
Sampling rate : 48.0 kHz
Frame rate : 93.750 FPS (512 SPF)
Bit depth : 24 bits
Compression mode : Lossless / Lossy
Stream size : 3.19 GiB (6%)
Title : Дубляж + вставки Евгения Солодухина
Language : Russian
Default : No
Forced : No

Audio #3
ID : 4
Format : DTS
Format/Info : Digital Theater Systems
Format profile : MA / Core
Mode : 16
Format settings, Endianness : Big
Codec ID : A_DTS
Duration : 1 h 55 min
Bit rate mode : Variable / Constant
Bit rate : 5 376 kb/s / 1 509 kb/s
Channel(s) : 8 channels / 6 channels
Channel positions : Front: L C R, Side: L R, Back: L R, LFE / Front: L C R, Side: L R, LFE
Sampling rate : 48.0 kHz
Frame rate : 93.750 FPS (512 SPF)
Bit depth : 24 bits
Compression mode : Lossless / Lossy
Stream size : 4.34 GiB (9%)
Title : Юрий Сербин
Language : Russian
Default : No
Forced : No

Audio #4
ID : 5
Format : DTS
Format/Info : Digital Theater Systems
Format profile : MA / Core
Mode : 16
Format settings, Endianness : Big
Codec ID : A_DTS
Duration : 1 h 55 min
Bit rate mode : Variable / Constant
Bit rate : 5 358 kb/s / 1 509 kb/s
Channel(s) : 8 channels / 6 channels
Channel positions : Front: L C R, Side: L R, Back: L R, LFE / Front: L C R, Side: L R, LFE
Sampling rate : 48.0 kHz
Frame rate : 93.750 FPS (512 SPF)
Bit depth : 24 bits
Compression mode : Lossless / Lossy
Stream size : 4.32 GiB (9%)
Title : Юрий Живов
Language : Russian
Default : No
Forced : No

Audio #5
ID : 6
Format : DTS
Format/Info : Digital Theater Systems
Format profile : MA / Core
Mode : 16
Format settings, Endianness : Big
Codec ID : A_DTS
Duration : 1 h 55 min
Bit rate mode : Variable / Constant
Bit rate : 5 366 kb/s / 1 509 kb/s
Channel(s) : 8 channels / 6 channels
Channel positions : Front: L C R, Side: L R, Back: L R, LFE / Front: L C R, Side: L R, LFE
Sampling rate : 48.0 kHz
Frame rate : 93.750 FPS (512 SPF)
Bit depth : 24 bits
Compression mode : Lossless / Lossy
Stream size : 4.33 GiB (9%)
Title : Евгений Солодухин
Language : Russian
Default : No
Forced : No

Audio #6
ID : 7
Format : AC-3
Format/Info : Audio Coding 3
Format settings, Endianness : Big
Codec ID : A_AC3
Duration : 1 h 55 min
Bit rate mode : Constant
Bit rate : 448 kb/s
Channel(s) : 6 channels
Channel positions : Front: L C R, Side: L R, LFE
Sampling rate : 48.0 kHz
Frame rate : 31.250 FPS (1536 SPF)
Bit depth : 16 bits
Compression mode : Lossy
Stream size : 370 MiB (1%)
Title : Дубляж (Blu-Ray EUR)
Language : Ukrainian
Service kind : Complete Main
Default : No
Forced : No

Audio #7
ID : 8
Format : DTS
Format/Info : Digital Theater Systems
Format profile : MA / Core
Mode : 16
Format settings, Endianness : Big
Codec ID : A_DTS
Duration : 1 h 55 min
Bit rate mode : Variable / Constant
Bit rate : 5 355 kb/s / 1 509 kb/s
Channel(s) : 8 channels / 6 channels
Channel positions : Front: L C R, Side: L R, Back: L R, LFE / Front: L C R, Side: L R, LFE
Sampling rate : 48.0 kHz
Frame rate : 93.750 FPS (512 SPF)
Bit depth : 24 bits
Compression mode : Lossless / Lossy
Stream size : 4.32 GiB (9%)
Title : Оригинал
Language : English
Default : No
Forced : No

Text #1
ID : 9
Format : UTF-8
Codec ID : S_TEXT/UTF8
Codec ID/Info : UTF-8 Plain Text
Duration : 1 h 31 min
Bit rate : 8 b/s
Count of elements : 124
Stream size : 5.90 KiB (0%)
Title : forced
Language : Russian
Default : Yes
Forced : No

Text #2
ID : 10
Format : UTF-8
Codec ID : S_TEXT/UTF8
Codec ID/Info : UTF-8 Plain Text
Duration : 1 h 38 min
Bit rate : 43 b/s
Count of elements : 679
Stream size : 31.3 KiB (0%)
Title : full
Language : Russian
Default : No
Forced : No

Text #3
ID : 11
Format : UTF-8
Codec ID : S_TEXT/UTF8
Codec ID/Info : UTF-8 Plain Text
Duration : 1 h 31 min
Bit rate : 8 b/s
Count of elements : 115
Stream size : 5.46 KiB (0%)
Title : forced
Language : Ukrainian
Default : No
Forced : No

Text #4
ID : 12
Format : UTF-8
Codec ID : S_TEXT/UTF8
Codec ID/Info : UTF-8 Plain Text
Duration : 1 h 53 min
Bit rate : 37 b/s
Count of elements : 676
Stream size : 31.7 KiB (0%)
Title : full
Language : Ukrainian
Default : No
Forced : No

Text #5
ID : 13
Format : UTF-8
Codec ID : S_TEXT/UTF8
Codec ID/Info : UTF-8 Plain Text
Duration : 1 h 18 min
Bit rate : 4 b/s
Count of elements : 99
Stream size : 2.78 KiB (0%)
Title : forced
Language : English
Default : No
Forced : No

Text #6
ID : 14
Format : UTF-8
Codec ID : S_TEXT/UTF8
Codec ID/Info : UTF-8 Plain Text
Duration : 1 h 42 min
Bit rate : 26 b/s
Count of elements : 729
Stream size : 20.0 KiB (0%)
Title : full
Language : English
Default : No
Forced : No

Text #7
ID : 15
Format : UTF-8
Codec ID : S_TEXT/UTF8
Codec ID/Info : UTF-8 Plain Text
Duration : 1 h 42 min
Bit rate : 30 b/s
Count of elements : 884
Stream size : 22.8 KiB (0%)
Title : SDH
Language : English
Default : No
Forced : No

Text #8
ID : 16
Format : UTF-8
Codec ID : S_TEXT/UTF8
Codec ID/Info : UTF-8 Plain Text
Duration : 1 h 42 min
Bit rate : 37 b/s
Count of elements : 884
Stream size : 27.7 KiB (0%)
Title : SDH colored
Language : English
Default : No
Forced : No

Menu
00:00:00.000 : en:
00:06:04.155 : en:
00:09:32.697 : en:
00:12:47.517 : en:
00:16:47.715 : en:
00:21:07.433 : en:
00:26:56.448 : en:
00:31:55.080 : en:
00:38:06.284 : en:
00:41:43.167 : en:
00:46:33.040 : en:
00:50:10.257 : en:
00:53:04.390 : en:
00:56:17.624 : en:
00:59:26.480 : en:
01:02:32.582 : en:
01:06:37.035 : en:
01:13:08.759 : en:
01:18:45.888 : en:
01:23:01.101 : en:
01:30:17.996 : en:
01:34:18.194 : en:
01:37:45.193 : en:
01:40:51.003 : en:

pb.wtf



Скачать Кредо убийцы через торрент http://i89.fastpic.ru/big/2017/0310/8e/080fb4357800edc5b70dc325f37b038e.gif Скачать, смотреть онлайн Кредо убийцы бесплантно в хорошем качестве Описание: Благодаря революционным технологиям, позволяющим вызвать в памяти воспоминания прежних поколений, Каллум Линч проживает ... 10 10 5
Info! Золотая раздача, скачанное не засчитывается.
Торрент: Зарегистрирован [2018-11-01 20:36] · скачан: 92 раз
Статус: √ проверено
Размер: 49.69 GB
Как cкачать? Как скачать Кредо убийцы через торрент | UTorrent

28-11-2019 20:33  

Отключить вcю реклaмy на сайте

    Дорогой пользователь! Огромная просьба, поблагодарите релизера, оцените раздачу и оставьте свои комментарий, если Вы скачали Кредо убийцы через торрент бесплатно!
    Комментировать посты могут только пользователи прошедшие не сложную регистрацию
    Показать сообщения:    

    Кредо убийцы через торрент
    Скачать бесплатно Кредо убийцы
    Кредо убийцы скачать торрент
    Кредо убийцы смотреть онлайн
    Cкачать фильм Кредо убийцы бесплатно
    Кредо убийцы скачать торрент в хорошем качестве
    Кредо убийцы смотреть онлайн бесплатно в хорошем качестве


    Вы не можете начинать темы
    Вы не можете отвечать на сообщения
    Вы не можете редактировать свои сообщения
    Вы не можете удалять свои сообщения
    Вы не можете голосовать в опросах
    Вы не можете прикреплять файлы к сообщениям
    Вы можете скачивать файлы