Ссылка на приватное зеркало нашего сайта всего за 1$. Внимание количество ограничено!!!

2 сезон

iTunes

1 сезон

1

2 сезон

2 сезон

iTunes

1 сезон

RePack

30

Ultimate

ВАЖНО

ИГРА 18+

pack

RePack

MK11
pack

Забери бонус

RePack

jed

!!Акция!!

Alien_Rage

RePack

fifa19

RePack

Assassins Creed: Odyssey

RePack

NEED FOR SPEED™ PAYBACK

4 сезон

9 сезон

Бесстыжие 9 сезон

Все сериалы

все сериалы на PB.wtf

RePack

FAR CRY 5
  

Мэнди / Mandy (Панос Косматос) [2018, ужасы, боевик, триллер, BD Remux 1080p] DUB [iTunes] pb.wtf

Мэнди через торрент pb.wtf

Размер: 26.62 GB | Добавлен: 2 года назад | Торрент скачан:74 раза
Скачать  

02-11-2018 04:41 Мэнди Скачать торрент  

Мэнди / Mandy
Год выпуска: 2018
Страна: США, Бельгия
Жанр: ужасы, боевик, триллер
Продолжительность: 02:01:02
Перевод: Дублированный | iTunes
Субтитры: Русские (2 x full), английские (SDH)

Режиссер: Панос Косматос

rating

В ролях:

Николас Кейдж, Андреа Райзборо, Лайнас Роуч, Нед Деннехи, Олуэн Фуэр, Ричард Брэйк, Билл Дьюк, Лайн Пийе, Клеман Баронне, Алексис Жюльмон

Описание:

1983 год. Дровосек Ред с милой женой Мэнди тихо живет в сельской местности рядом с лесом. Ничего удивительного, но в лесу поселилось зло - религиозный культ в компании с адской байкерской бандой. Как не вовремя пошла Мэнди прогуляться в лесу, где и приглянулась зловещему лидеру культа Иеремие. Тот приказывает байкерам похитить девушку, накачивает ее наркотиками и придает ритуальному сожжению. И не оставляет выбора дровосеку Реду, кроме как встать на тропу мести.

Качество: BD Remux 1080p
Формат: MKV

Видео: MPEG-4 AVC, 1920x1080, 27.7 Mbit/s, 23.976 fps
Аудио#1: 48 kHz, AC3, 5.1, 384 Kbps | iTunes | RUS |
Аудио#2: 48 kHz, DTS-HD MA, 5.1, 3421 Kbps | Оригинал | ENG |
скриншот  скриншот  скриншот  скриншот  скриншот  

General
Unique ID : 130948661909787291486603961753189448843 (0x6283CB7F8BD12CB19DAAA0C88F7F7C8B)
Complete name : D:Video111Mandy.2018.BDREMUX.1080p.selezen.mkv
Format : Matroska
Format version : Version 4
File size : 26.6 GiB
Duration : 2 h 1 min
Overall bit rate mode : Variable
Overall bit rate : 31.5 Mb/s
Movie name : Mandy 2018 1080p from селезень
Encoded date : UTC 2018-11-02 04:05:39
Writing application : mkvmerge v28.0.0 ('Voice In My Head') 64-bit
Writing library : libebml v1.3.6 + libmatroska v1.4.9

Video
ID : 1
Format : AVC
Format/Info : Advanced Video Codec
Format profile : High@L4.1
Format settings : CABAC / 4 Ref Frames
Format settings, CABAC : Yes
Format settings, ReFrames : 4 frames
Codec ID : V_MPEG4/ISO/AVC
Duration : 2 h 1 min
Bit rate mode : Variable
Bit rate : 27.7 Mb/s
Maximum bit rate : 36.0 Mb/s
Width : 1 920 pixels
Height : 1 080 pixels
Display aspect ratio : 16:9
Frame rate mode : Constant
Frame rate : 23.976 (24000/1001) FPS
Color space : YUV
Chroma subsampling : 4:2:0
Bit depth : 8 bits
Scan type : Progressive
Bits/(Pixel*Frame) : 0.557
Stream size : 23.4 GiB (88%)
Language : English
Default : Yes
Forced : No

Audio #1
ID : 2
Format : AC-3
Format/Info : Audio Coding 3
Commercial name : Dolby Digital
Codec ID : A_AC3
Duration : 2 h 1 min
Bit rate mode : Constant
Bit rate : 384 kb/s
Channel(s) : 6 channels
Channel layout : L R C LFE Ls Rs
Sampling rate : 48.0 kHz
Frame rate : 31.250 FPS (1536 SPF)
Bit depth : 16 bits
Compression mode : Lossy
Stream size : 332 MiB (1%)
Title : iTunes
Language : Russian
Service kind : Complete Main
Default : Yes
Forced : Yes

Audio #2
ID : 3
Format : DTS XLL
Format/Info : Digital Theater Systems
Commercial name : DTS-HD Master Audio
Codec ID : A_DTS
Duration : 2 h 1 min
Bit rate mode : Variable
Bit rate : 3 421 kb/s
Channel(s) : 6 channels
Channel layout : C L R Ls Rs LFE
Sampling rate : 48.0 kHz
Frame rate : 93.750 FPS (512 SPF)
Bit depth : 24 bits
Compression mode : Lossless
Stream size : 2.89 GiB (11%)
Title : Original
Language : English
Default : No
Forced : No

Text #1
ID : 4
Format : UTF-8
Codec ID : S_TEXT/UTF8
Codec ID/Info : UTF-8 Plain Text
Duration : 1 h 50 min
Bit rate : 23 b/s
Count of elements : 479
Stream size : 19.2 KiB (0%)
Title : Full v.1
Language : Russian
Default : No
Forced : No

Text #2
ID : 5
Format : UTF-8
Codec ID : S_TEXT/UTF8
Codec ID/Info : UTF-8 Plain Text
Duration : 1 h 56 min
Bit rate : 26 b/s
Count of elements : 485
Stream size : 22.5 KiB (0%)
Title : Full v.2
Language : Russian
Default : No
Forced : No

Text #3
ID : 6
Format : UTF-8
Codec ID : S_TEXT/UTF8
Codec ID/Info : UTF-8 Plain Text
Duration : 1 h 59 min
Bit rate : 18 b/s
Count of elements : 699
Stream size : 16.3 KiB (0%)
Title : SDH
Language : English
Default : No
Forced : No

Menu
00:00:00.000 : en:00:00:00.000
00:11:14.799 : en:00:11:14.799
00:21:25.826 : en:00:21:25.826
00:34:30.235 : en:00:34:30.235
00:51:18.158 : en:00:51:18.158
01:04:38.500 : en:01:04:38.500
01:08:57.342 : en:01:08:57.342
01:16:49.647 : en:01:16:49.647
01:26:33.980 : en:01:26:33.980
01:36:26.656 : en:01:36:26.656
01:47:46.085 : en:01:47:46.085
01:57:05.018 : en:01:57:05.018

pb.wtf



Скачать Мэнди через торрент https://c.radikal.ru/c14/1811/74/39e142c4d265.jpg Скачать фильм Мэнди через торрент бесплантно в хорошем качестве Описание: 1983 год. Дровосек Ред с милой женой Мэнди тихо живет в сельской местности рядом с лесом. Ничего удивительного, но в лесу ... 9.4 10 5
Info! Золотая раздача, скачанное не засчитывается.
Торрент: Зарегистрирован [2018-11-02 04:41] · скачан: 74 раз
Статус: √ проверено
Размер: 26.62 GB
Как cкачать? Как скачать Мэнди через торрент | qTorrent

% Раздел Тема Автор DL S | L
Фильмы 2018 [DVDrip, WEB-DLRip, HDrip] (DUB, MVO) [ 1.46 GB ] Мэнди / Mandy [2018 BDRip] - Twi7ter Скачать
3 | 0
Фильмы [HD 720p, 1080p] (Хороший звук DUB, MVO) [ 15.12 GB ] Мэнди / Mandy [2018 BDRip 1080p] bober100 Скачать
1 | 0
Фильмы 2018 [DVDrip, WEB-DLRip, HDrip] (DUB, MVO) [ 2.46 GB ] Мэнди / Mandy [2018 BDRip-AVC] MVO [HDrezka Studio] + bober100 Скачать
1 | 0
Фильмы 2018 [DVDrip, WEB-DLRip, HDrip] (DUB, MVO) [ 2.13 GB ] Мэнди / Mandy [2018 BDRip] - Twi7ter Скачать
1 | 0
Фильмы 2018 [DVDrip, WEB-DLRip, HDrip] (DUB, MVO) [ 2.13 GB ] Мэнди / Mandy [2018 BDRip] bober100 Скачать
1 | 0
Фильмы 2018 [DVDrip, WEB-DLRip, HDrip] (DUB, MVO) [ 746 MB ] Мэнди / Mandy [2018 BDRip] bober100 Скачать
1 | 0
Фильмы 2018 [DVDrip, WEB-DLRip, HDrip] (DUB, MVO) [ 1.46 GB ] Мэнди / Mandy [2018 BDRip] bober100 Скачать
1 | 0

28-11-2019 20:33  

Отключить всю рекламу на сайте

    Дорогой пользователь! Огромная просьба, поблагодарите релизера, оцените раздачу и оставьте свои комментарий, если Вы скачали Мэнди через торрент бесплатно! Внесите свою лепту в развитие PiratBit!
    Комментировать посты могут только пользователи прошедшие не сложную регистрацию
    Показать сообщения:    

    Мэнди через торрент
    Скачать бесплатно Мэнди
    Мэнди скачать торрент
    Мэнди смотреть онлайн
    Cкачать фильм Мэнди бесплатно
    Мэнди скачать торрент в хорошем качестве
    Мэнди смотреть онлайн бесплатно в хорошем качестве


    Вы не можете начинать темы
    Вы не можете отвечать на сообщения
    Вы не можете редактировать свои сообщения
    Вы не можете удалять свои сообщения
    Вы не можете голосовать в опросах
    Вы не можете прикреплять файлы к сообщениям
    Вы можете скачивать файлы