Ссылка на приватное зеркало всего за 1$. Внимание количество ограничено!!!

iTunes

1+1

iTunes

мы

WEB-DL

1

iTunes

Чернобыль

iTunes

Ральф против интернета

Лицензия

ПШазам

Лицензия

Оно 2

Лицензия

30
pack

Вам бонус

ВАЖНО

!!Акция!!

Alien_RageХит недели

RePack

Resident Evil 21

ИГРА 18+

pack

RePack

jed

!!Акция!!

Alien_Rage

RePack

fifa19

RePack

Assassins Creed: Odyssey

RePack

NEED FOR SPEED™ PAYBACK

3 сезон

9 сезон

Бесстыжие 9 сезон

Все сериалы

все сериалы на PB.wtf

RePack

FAR CRY 5
Ребята, катастрофически не хватает 1900р. для оплаты серверов за Октябрь (всвязи с блокировками трафик упал в 3 раза), 1-2р., выручайте.
  

Мэнди / Mandy (Панос Косматос) [2018, ужасы, боевик, триллер, BDRip-AVC] MVO [HDrezka Studio] +DUB [iTunes] pb.wtf

Мэнди через торрент pb.wtf

Размер: 2.46 GB | Добавлен: 1 год 1 мес. назад | Торрент скачан:422 раза
Скачать  

02-11-2018 06:25 Мэнди Скачать торрент  

Мэнди / Mandy
Год выпуска: 2018
Страна: США, Бельгия
Жанр: ужасы, боевик, триллер
Продолжительность: 02:01:02
Перевод:

Дублированный | iTunes
Профессиональный многоголосый | HDrezka Studio

Субтитры: Русские (полные), Английские (полные, SDH)

Режиссер: Панос Косматос

rating

В ролях:

Николас Кейдж, Андреа Райзборо, Лайнас Роуч, Нед Деннехи, Олуэн Фуэр, Ричард Брэйк, Билл Дьюк, Лайн Пийе, Клеман Баронне, Алексис Жюльмон

Описание:

1983 год. Дровосек Ред с милой женой Мэнди тихо живет в сельской местности рядом с лесом. Ничего удивительного, но в лесу поселилось зло - религиозный культ в компании с адской байкерской бандой. Как не вовремя пошла Мэнди прогуляться в лесу, где и приглянулась зловещему лидеру культа Иеремие. Тот приказывает байкерам похитить девушку, накачивает ее наркотиками и придает ритуальному сожжению. И не оставляет выбора дровосеку Реду, кроме как встать на тропу мести.

Качество: BDRip-AVC
Формат: MKV

Видео: 1024x428 (2.40:1), 23,976 fps, x264 ~1 881 kbps avg, 0.179 bit/pixel
Аудио#1: 48 kHz, AC3 Dolby Digital, 3/2 (L,C,R,l,r) + LFE ch, ~384.00 kbps avg | RUS (iTunes)
Аудио#2: 48 kHz, AC3 Dolby Digital, 2 (L,R) ch, ~192.00 kbps avg | RUS (HDRezka Studio)
Аудио#3: 48 kHz, AC3 Dolby Digital, 3/2 (L,C,R,l,r) + LFE ch, ~448.00 kbps avg | ENG
скриншот  скриншот  скриншот  скриншот  скриншот  

Общее
Уникальный идентификатор : 229432587394615025834363366568036349409 (0xAC9B1BE944DFB681F7903C7D937735E1)
Полное имя : F:OlLanDGroupMandy.2018.BDRip(AVC).OlLanDGroup.mkv
Формат : Matroska
Версия формата : Version 4 / Version 2
Размер файла : 2,46 Гбайт
Продолжительность : 2 ч. 1 м.
Общий поток : 2904 Кбит/сек
Название фильма : Mandy.2018 #TorpedoUK#
Дата кодирования : UTC 2018-11-02 02:20:51
Программа кодирования : mkvmerge v25.0.0 ('Prog Noir') 64-bit
Библиотека кодирования : libebml v1.3.6 + libmatroska v1.4.9

Видео
Идентификатор : 1
Формат : AVC
Формат/Информация : Advanced Video Codec
Профиль формата : High@L4.1
Параметр CABAC формата : Да
Параметр ReFrames формата : 10 кадров
Идентификатор кодека : V_MPEG4/ISO/AVC
Продолжительность : 2 ч. 1 м.
Битрейт : 1881 Кбит/сек
Ширина : 1024 пикселя
Высота : 428 пикселей
Соотношение сторон : 2,40:1
Режим частоты кадров : Постоянный
Частота кадров : 23,976 (24000/1001) кадра/сек
Цветовое пространство : YUV
Субдискретизация насыщенности : 4:2:0
Битовая глубина : 8 бит
Тип развёртки : Прогрессивная
Бит/(Пиксели*Кадры) : 0.179
Размер потока : 1,59 Гбайт (65%)
Библиотека кодирования : x264 core 146 r2538 121396c
Настройки программы : cabac=1 / ref=10 / deblock=1:-2:-3 / analyse=0x3:0x113 / me=umh / subme=11 / psy=1 / psy_rd=0.95:0.07 / mixed_ref=1 / me_range=48 / chroma_me=1 / trellis=2 / 8x8dct=1 / cqm=0 / deadzone=21,11 / fast_pskip=1 / chroma_qp_offset=-3 / threads=6 / lookahead_threads=1 / sliced_threads=0 / nr=0 / decimate=1 / interlaced=0 / bluray_compat=0 / constrained_intra=0 / bframes=10 / b_pyramid=2 / b_adapt=2 / b_bias=0 / direct=3 / weightb=1 / open_gop=0 / weightp=2 / keyint=240 / keyint_min=23 / scenecut=40 / intra_refresh=0 / rc_lookahead=40 / rc=2pass / mbtree=0 / bitrate=1881 / ratetol=1.0 / qcomp=0.60 / qpmin=0 / qpmax=69 / qpstep=4 / cplxblur=20.0 / qblur=0.5 / vbv_maxrate=50000 / vbv_bufsize=62500 / nal_hrd=none / filler=0 / ip_ratio=1.40 / pb_ratio=1.30 / aq=1:1.00
Язык : English
Default : Да
Forced : Нет

Аудио #1
Идентификатор : 2
Формат : AC-3
Формат/Информация : Audio Coding 3
Расширение режима : CM (complete main)
Параметр Endianness формата : Big
Идентификатор кодека : A_AC3
Продолжительность : 2 ч. 1 м.
Вид битрейта : Постоянный
Битрейт : 384 Кбит/сек
Каналы : 6 каналов
Расположение каналов : Front: L C R, Side: L R, LFE
Частота : 48,0 КГц
Частота кадров : 31,250 кадров/сек (1536 spf)
Битовая глубина : 16 бит
Метод сжатия : С потерями
Размер потока : 332 Мбайт (13%)
Заголовок : DUB [iTunes]
Язык : Russian
Default : Да
Forced : Нет

Аудио #2
Идентификатор : 3
Формат : AC-3
Формат/Информация : Audio Coding 3
Расширение режима : CM (complete main)
Параметр Endianness формата : Big
Идентификатор кодека : A_AC3
Продолжительность : 2 ч. 1 м.
Вид битрейта : Постоянный
Битрейт : 192 Кбит/сек
Каналы : 2 канала
Расположение каналов : Front: L R
Частота : 48,0 КГц
Частота кадров : 31,250 кадров/сек (1536 spf)
Битовая глубина : 16 бит
Метод сжатия : С потерями
Размер потока : 166 Мбайт (7%)
Заголовок : MVO [HDRezka Studio]
Язык : Russian
Default : Нет
Forced : Нет

Аудио #3
Идентификатор : 4
Формат : AC-3
Формат/Информация : Audio Coding 3
Расширение режима : CM (complete main)
Параметр Endianness формата : Big
Идентификатор кодека : A_AC3
Продолжительность : 2 ч. 1 м.
Вид битрейта : Постоянный
Битрейт : 448 Кбит/сек
Каналы : 6 каналов
Расположение каналов : Front: L C R, Side: L R, LFE
Частота : 48,0 КГц
Частота кадров : 31,250 кадров/сек (1536 spf)
Битовая глубина : 16 бит
Метод сжатия : С потерями
Размер потока : 388 Мбайт (15%)
Заголовок : [Original]
Язык : English
Default : Нет
Forced : Нет

Текст #1
Идентификатор : 5
Формат : UTF-8
Идентификатор кодека : S_TEXT/UTF8
Идентификатор кодека/Информация : UTF-8 Plain Text
Продолжительность : 1 ч. 56 м.
Битрейт : 26 бит/сек
Count of elements : 485
Размер потока : 22,5 Кбайт (0%)
Заголовок : Full
Язык : Russian
Default : Нет
Forced : Нет

Текст #2
Идентификатор : 6
Формат : UTF-8
Идентификатор кодека : S_TEXT/UTF8
Идентификатор кодека/Информация : UTF-8 Plain Text
Продолжительность : 1 ч. 55 м.
Битрейт : 15 бит/сек
Count of elements : 498
Размер потока : 12,8 Кбайт (0%)
Заголовок : Full
Язык : English
Default : Нет
Forced : Нет

Текст #3
Идентификатор : 7
Формат : UTF-8
Идентификатор кодека : S_TEXT/UTF8
Идентификатор кодека/Информация : UTF-8 Plain Text
Продолжительность : 1 ч. 59 м.
Битрейт : 18 бит/сек
Count of elements : 699
Размер потока : 16,3 Кбайт (0%)
Заголовок : SDH
Язык : English
Default : Нет
Forced : Нет

Меню
00:00:00.000 : en:Chapter 1
00:11:14.799 : en:Chapter 2
00:21:25.826 : en:Chapter 3
00:34:30.234 : en:Chapter 4
00:51:18.158 : en:Chapter 5
01:04:38.499 : en:Chapter 6
01:08:57.341 : en:Chapter 7
01:16:49.646 : en:Chapter 8
01:26:33.980 : en:Chapter 9
01:36:26.655 : en:Chapter 10
01:47:46.084 : en:Chapter 11
01:57:05.018 : en:Chapter 12

pb.wtf



Скачать Мэнди через торрент http://i98.fastpic.ru/big/2018/1102/84/7f63e51a0713efb32dc51e946aee6384.jpg Скачать фильм Мэнди через торрент бесплантно в хорошем качестве Описание: 1983 год. Дровосек Ред с милой женой Мэнди тихо живет в сельской местности рядом с лесом. Ничего удивительного, но в лесу ... 8.2 10 10
Торрент: Зарегистрирован [2018-11-02 06:25] · скачан: 422 раз
Статус: √ проверено
Размер: 2.46 GB
Как cкачать? Как скачать Мэнди через торрент | qTorrent

% Раздел Тема Автор DL S | L
Фильмы 2018 [DVDrip, WEB-DLRip, HDrip] (DUB, MVO) [ 1.46 GB ] Мэнди / Mandy [2018 BDRip] - Twi7ter Скачать
1 | 0
Фильмы [HD 720p, 1080p] (Хороший звук DUB, MVO) [ 15.12 GB ] Мэнди / Mandy [2018 BDRip 1080p] bober100 Скачать
1 | 0
Фильмы 2018 [DVDrip, WEB-DLRip, HDrip] (DUB, MVO) [ 2.13 GB ] Мэнди / Mandy [2018 BDRip] - Twi7ter Скачать
1 | 0
Фильмы 2018 [DVDrip, WEB-DLRip, HDrip] (DUB, MVO) [ 2.13 GB ] Мэнди / Mandy [2018 BDRip] bober100 Скачать
2 | 0
Фильмы (Blu-ray, BD-Remux, HDDVD) [ 26.62 GB ] Мэнди / Mandy [2018 BD Remux 1080p] bober100 Скачать
2 | 0
Фильмы 2018 [DVDrip, WEB-DLRip, HDrip] (DUB, MVO) [ 746 MB ] Мэнди / Mandy [2018 BDRip] bober100 Скачать
1 | 0
Фильмы 2018 [DVDrip, WEB-DLRip, HDrip] (DUB, MVO) [ 1.46 GB ] Мэнди / Mandy [2018 BDRip] bober100 Скачать
1 | 0

28-11-2019 20:33  

Отключить всю рекламу на сайте


02-11-2018 19:31 Мэнди Скачать торрент  

да уж, живется режиссеру с такой фамилией и именем)))pb.wtf



02-11-2018 22:15 Мэнди Скачать торрент  

lexabudu писал(а):

да уж, живется режиссеру с такой фамилией и именем)))

pb.wtf



03-11-2018 15:42 Мэнди Скачать торрент  

Фильм Г.....О Редкостное!!!!pb.wtf



04-11-2018 10:45 Мэнди Скачать торрент  

Тридцать две струи не считая мелких брызгов (Панос) Взрыв на макаронной фабрике (Косматос)
И Николас Кейдж...pb.wtf



07-11-2018 15:07 Мэнди Скачать торрент  

Жесть. Не ожидал я от него такого г. Не критик если что, просто как зритель говорю.pb.wtf



07-11-2018 17:06 Мэнди Скачать торрент  

Такой сюжет просто . ОН бы ещё с говяхой етого бога посражался . Ну что сказать просто . С головой если не всё в порядке то можно и посмотреть. Баба Просто афродита лесная.pb.wtf



    Дорогой пользователь! Огромная просьба, поблагодарите релизера, оцените раздачу и оставьте свои комментарий, если Вы скачали Мэнди через торрент бесплатно! Внесите свою лепту в развитие PiratBit!
    Комментировать посты могут только пользователи прошедшие не сложную регистрацию
    Показать сообщения:    

    Мэнди через торрент
    Скачать бесплатно Мэнди
    Мэнди скачать торрент
    Мэнди смотреть онлайн
    Cкачать фильм Мэнди бесплатно
    Мэнди скачать торрент в хорошем качестве
    Мэнди смотреть онлайн бесплатно в хорошем качестве


    Вы не можете начинать темы
    Вы не можете отвечать на сообщения
    Вы не можете редактировать свои сообщения
    Вы не можете удалять свои сообщения
    Вы не можете голосовать в опросах
    Вы не можете прикреплять файлы к сообщениям
    Вы можете скачивать файлы