новый адрес
Мега распродажа FORZA HORIZON 4 ULTIMATE+ВСЕ DLC+ОНЛАЙН всего за 499р. 349 руб. (супер цена). Внимание количество ограничено!!!

iTunes

1+1

iTunes

мы

iTunes

1

iTunes

Чернобыль

iTunes

Ральф против интернета

Лицензия

ПШазам

Лицензия

Игра престолов

Лицензия

30
pack

ВАЖНО

!!Акция!!

Alien_RageХит недели

RePack

Resident Evil 21

ИГРА 18+

pack

RePack

Metro:Exodus

!!Акция!!

Alien_Rage

RePack

fifa19

RePack

Assassins Creed: Odyssey

RePack

NEED FOR SPEED™ PAYBACK

3 сезон

9 сезон

Бесстыжие 9 сезон

Все сериалы

все сериалы на PB.wtf

RePack

FAR CRY 5
Ребята, катастрофически не хватает 1900р. для оплаты серверов за Октябрь (всвязи с блокировками трафик упал в 3 раза), 1-2р., выручайте.
  

Вольный ветер (Леонид Трауберг, Андрей Тутышкин) [1961, СССР, мюзикл, мелодрама, комедия, DVDRip от AVP Studio] pb.wtf

Вольный ветер через торрент pb.wtf

Размер: 1.09 GB | Добавлен: 1 год назад | Торрент скачан:8 раз
Скачать  

02-11-2018 09:57 Вольный ветер Скачать торрент  

Вольный ветер
Страна: СССР
Производство: Мосфильм

Жанр: мюзикл, мелодрама, комедия
Год выпуска: 1961
Продолжительность: 01:19:24

Перевод: Не требуется
Cубтитры: нет
Оригинальная аудиодорожка: русский

Режиссер: Леонид Трауберг, Андрей Тутышкин

В ролях:
Лионелла Пырьева, Надежда Румянцева, Александр Лазарев (ст.), Николай Гриценко, Марк Перцовский, Юрий Медведев, Эрнст Зорин, Вера Енютина, Лариса Пашкова, Михаил Яншин, Пётр Репнин, Сергей Мартинсон, Елизавета Ауэрбах...
Об актёрах подробней

Описание:
По одноименной оперетте Исаака Дунаевского.
Портовый городок одной из средиземноморских стран. После ухода фашистских оккупантов безлюдны причалы порта, не дымят пароходы, стоят грузовые краны. Боясь возмездия за сотрудничество с врагами, хозяин порта Георг Стан (Николай Гриценко) бежал из города. Переждав некоторое время и заручившись поддержкой местных властей, Стан тем не менее возвращается, и в порту начинаются погрузочные работы. Пока идет погрузка апельсинов, моряк Янго обнаруживает в ящиках трюма оружие, предназначенное для поддержки фашистов, герои делают всё возможное, чтобы ящики легли на дно моря.

Источник: DVD5 R5
Качество видео: DVDRip
Формат видео: AVI

Видео: 688х512 (4:3), 25 fps, XviD ~ 1760 kbps avg, 0.200 bit/pixel
Аудио: 48 kHz, Dolby Digital AC3 2.0, 192 kbps

Раздача от:
Общее
Полное имя : Volnyy.veter.1961.DVDRip_[New-team]_by_AVP_Studio.avi
Формат : AVI
Формат/Информация : Audio Video Interleave
Размер файла : 1,09 Гбайт
Продолжительность : 1 ч. 19 м.
Общий поток : 1961 Кбит/сек
Программа кодирования : VirtualDubMod 1.5.10.3 | www.virtualdub-fr.org || (build 2550/release)
Библиотека кодирования : VirtualDubMod build 2550/release

Видео
Идентификатор : 0
Формат : MPEG-4 Visual
Профиль формата : Advanced Simple@L5
Настройки формата : BVOP1 / Custom Matrix
Параметр BVOP формата : 1
Параметр QPel формата : Нет
Параметр GMC формата : Без точки перехода
Параметр матрицы формата : Выборочная
Идентификатор кодека : XVID
Идентификатор кодека/Подсказка : XviD
Продолжительность : 1 ч. 19 м.
Битрейт : 1760 Кбит/сек
Ширина : 688 пикселей
Высота : 512 пикселей
Соотношение сторон : 4:3
Частота кадров : 25,000 кадров/сек
Цветовое пространство : YUV
Субдискретизация насыщенности : 4:2:0
Битовая глубина : 8 бит
Тип развёртки : Прогрессивная
Метод сжатия : С потерями
Бит/(Пиксели*Кадры) : 0.200
Размер потока : 999 Мбайт (90%)
Библиотека кодирования : XviD 73

Аудио
Идентификатор : 1
Формат : AC-3
Формат/Информация : Audio Coding 3
Коммерческое название : Dolby Digital
Идентификатор кодека : 2000
Продолжительность : 1 ч. 19 м.
Вид битрейта : Постоянный
Битрейт : 192 Кбит/сек
Каналы : 2 канала
Channel layout : L R
Частота : 48,0 КГц
Частота кадров : 31,250 кадров/сек (1536 SPF)
Битовая глубина : 16 бит
Метод сжатия : С потерями
Размер потока : 109 Мбайт (10%)
Выравнивание : Разделение по промежуткам
Продолжительность промежутка : 40 мс. (1,00 видеокадр)
Время предзагрузки промежутка : 500 мс
pb.wtf



Скачать Вольный ветер через торрент http://picplus.ru/img/1811/02/69f9db6b.png Скачать фильм Вольный ветер через торрент бесплантно в хорошем качестве Описание:По одноименной оперетте Исаака Дунаевского.Портовый городок одной из средиземноморских стран. После ухода фашистских оккупантов ... 5 10 1
Info! Золотая раздача, скачанное не засчитывается.
Торрент: Зарегистрирован [2018-11-02 09:57] · скачан: 8 раз
Статус: √ проверено
Размер: 1.09 GB
Как cкачать? Как скачать Вольный ветер через торрент | qTorrent

% Раздел Тема Автор DL S | L
Кино СССР [ 1.09 GB ] Вольный ветер [1961 СССР мюзикл DVDRip-AVC от AVP Studio] AVP Studio Скачать
1 | 0


>> Регистрируемся здесь <<






Отзывы и комментарии о схеме читаем и пишем здесь: ---> Отзывы и комментарии о схеме

Новые благодарочки в телеграм довольных пользователей:
скриншот   скриншот   скриншот   скриншот   скриншот
    Дорогой пользователь! Огромная просьба, поблагодарите релизера, оцените раздачу и оставьте свои комментарий, если Вы скачали Вольный ветер через торрент бесплатно! Внесите свою лепту в развитие PiratBit!
    Комментировать посты могут только пользователи прошедшие не сложную регистрацию
    Показать сообщения:    

    Вольный ветер через торрент
    Скачать бесплатно Вольный ветер
    Вольный ветер скачать торрент
    Вольный ветер смотреть онлайн
    Cкачать фильм Вольный ветер бесплатно
    Вольный ветер скачать торрент в хорошем качестве
    Вольный ветер смотреть онлайн бесплатно в хорошем качестве


    Вы не можете начинать темы
    Вы не можете отвечать на сообщения
    Вы не можете редактировать свои сообщения
    Вы не можете удалять свои сообщения
    Вы не можете голосовать в опросах
    Вы не можете прикреплять файлы к сообщениям
    Вы можете скачивать файлы