Ссылка на приватное зеркало нашего сайта всего за 1$. Внимание количество ограничено!!!

2 сезон

iTunes

1 сезон

1

2 сезон

2 сезон

iTunes

1 сезон

RePack

30

Ultimate

ВАЖНО

ИГРА 18+

pack

RePack

MK11
pack

Забери бонус

RePack

jed

!!Акция!!

Alien_Rage

RePack

fifa19

RePack

Assassins Creed: Odyssey

RePack

NEED FOR SPEED™ PAYBACK

4 сезон

9 сезон

Бесстыжие 9 сезон

Все сериалы

все сериалы на PB.wtf

RePack

FAR CRY 5
  

Поколение убийц / Generation Kill / Сезон: 1 / Серии: 1-7 из 7 (Сузанна Уайт, Саймон Селлан Джоунс) [2008 г., драма, военный, BDRip 1080p-HEVC 10bit] MVO [Гланц & Со. (С.Р.И.)] pb.wtf

Поколение убийц через торрент pb.wtf

Размер: 14.64 GB | Добавлен: 1 год назад | Торрент скачан:8 раз
Скачать  

02-11-2018 10:50 Поколение убийц Скачать торрент  

Поколение убийц / Generation Kill
Год выпуска: 2008
Страна: США
Жанр: драма, военный
Продолжительность: ~01:08:00 (серия)
Перевод: Профессиональный (многоголосый) [Гланц & Со. (С.Р.И.)]
Субтитры: Нет

Режиссер: Сузанна Уайт, Саймон Селлан Джоунс



В ролях: Александр Скарсгард, Джеймс Рэнсон, Ли Тергесен, Джон Уэртас

Описание: Вторжение американцев в Ирак в 2003 году глазами рядовых пехотинцев армии США. В центре повествования Первый Разведывательный батальон морской пехоты. В лагерь Матильда, Кувейт, прибывает журналист Эван Райт в исполнении старого знакомого Ли Тергесона, который будет сопровождать войска в их наступлении на столицу — город Багдад. Два месяца войны без прикрас.

Качество: BDRip 1080p
Формат: MKV
Видео кодек: H.265
Аудио кодек: AC3
Видео: HEVC/H.265, 1920x1080, ~4450 Kbps, 10 бит
Аудио#1: AC3, 6 ch, 448 Kbps - Профессиональный многоголосый закадровый (С.Р.И. - Гланц & Со.)
Релиз от: ADVOKAT69
скриншот  ,скриншот  ,скриншот  ,скриншот  ,

Общее
Уникальный идентификатор : 177215216032332507459176504331161735537 (0x855268BBCFADEF26895CC5A3DB629171)
Полное имя : E:\КИНО HEVC\Поколение убийц (2008) HEVC 10bit\01.Мы своё возьмём.mkv
Формат : Matroska
Версия формата : Version 4
Размер файла : 2,13 Гбайт
Продолжительность : 1 ч. 8 м.
Общий поток : 4450 Кбит/сек
Название фильма : Generation Kill - Disc 1
Дата кодирования : UTC 2019-11-27 12:28:14
Программа кодирования : mkvmerge v9.2.0 ('Photograph') 64bit
Библиотека кодирования : libebml v1.3.3 + libmatroska v1.4.4
Writing frontend : StaxRip v1.7.0.6

Видео
Идентификатор : 1
Формат : HEVC
Формат/Информация : High Efficiency Video Coding
Профиль формата : Main 10@L4@Main
Идентификатор кодека : V_MPEGH/ISO/HEVC
Продолжительность : 1 ч. 8 м.
Битрейт : 4000 Кбит/сек
Ширина : 1920 пикселей
Высота : 1080 пикселей
Соотношение сторон : 16:9
Режим частоты кадров : Постоянный
Частота кадров : 23,976 (24000/1001) кадра/сек
Цветовое пространство : YUV
Субдискретизация насыщенности : 4:2:0
Битовая глубина : 10 бит
Бит/(Пиксели*Кадры) : 0.080
Размер потока : 1,91 Гбайт (90%)
Библиотека кодирования : x265 2.9+8-27d8424c799d:[Windows][MSVC 1900][64 bit] 10bit
Настройки программы : cpuid=1111039 / frame-threads=4 / numa-pools=16 / wpp / no-pmode / no-pme / no-psnr / no-ssim / log-level=2 / input-csp=1 / input-res=1920x1080 / interlace=0 / total-frames=98385 / level-idc=0 / high-tier=1 / uhd-bd=0 / ref=5 / no-allow-non-conformance / no-repeat-headers / annexb / no-aud / no-hrd / info / hash=0 / no-temporal-layers / open-gop / min-keyint=23 / keyint=250 / gop-lookahead=0 / bframes=8 / b-adapt=2 / b-pyramid / bframe-bias=0 / rc-lookahead=80 / lookahead-slices=4 / scenecut=40 / radl=0 / no-intra-refresh / ctu=64 / min-cu-size=8 / no-rect / no-amp / max-tu-size=32 / tu-inter-depth=1 / tu-intra-depth=1 / limit-tu=0 / rdoq-level=2 / dynamic-rd=0.00 / no-ssim-rd / signhide / no-tskip / nr-intra=0 / nr-inter=0 / no-constrained-intra / no-strong-intra-smoothing / max-merge=3 / limit-refs=3 / limit-modes / me=3 / subme=5 / merange=57 / temporal-mvp / weightp / weightb / no-analyze-src-pics / deblock=-3:-3 / no-sao / no-sao-non-deblock / rd=4 / no-early-skip / rskip / no-fast-intra / no-tskip-fast / no-cu-lossless / b-intra / no-splitrd-skip / rdpenalty=0 / psy-rd=2.00 / psy-rdoq=1.00 / no-rd-refine / no-lossless / cbqpoffs=0 / crqpoffs=0 / rc=abr / bitrate=4000 / qcomp=0.60 / qpstep=4 / stats-write=0 / stats-read=2 / cplxblur=20.0 / qblur=0.5 / ipratio=1.40 / pbratio=1.30 / aq-mode=3 / aq-strength=1.00 / cutree / zone-count=0 / no-strict-cbr / qg-size=32 / no-rc-grain / qpmax=69 / qpmin=0 / no-const-vbv / sar=0 / overscan=0 / videoformat=5 / range=0 / colorprim=2 / transfer=2 / colormatrix=2 / chromaloc=0 / display-window=0 / max-cll=0,0 / min-luma=0 / max-luma=1023 / log2-max-poc-lsb=8 / vui-timing-info / vui-hrd-info / slices=1 / no-opt-qp-pps / no-opt-ref-list-length-pps / no-multi-pass-opt-rps / scenecut-bias=0.05 / no-opt-cu-delta-qp / no-aq-motion / no-hdr / no-hdr-opt / no-dhdr10-opt / no-idr-recovery-sei / analysis-reuse-level=5 / scale-factor=0 / refine-intra=0 / refine-inter=0 / refine-mv=0 / no-limit-sao / ctu-info=0 / no-lowpass-dct / refine-mv-type=0 / copy-pic=1 / max-ausize-factor=1.0 / no-dynamic-refine / no-single-sei
Default : Да
Forced : Нет

Аудио
Идентификатор : 2
Формат : AC-3
Формат/Информация : Audio Coding 3
Коммерческое название : Dolby Digital
Идентификатор кодека : A_AC3
Продолжительность : 1 ч. 8 м.
Вид битрейта : Постоянный
Битрейт : 448 Кбит/сек
Каналы : 6 каналов
Channel layout : L R C LFE Ls Rs
Частота : 48,0 КГц
Частота кадров : 31,250 кадров/сек (1536 SPF)
Битовая глубина : 16 бит
Метод сжатия : С потерями
Размер потока : 219 Мбайт (10%)
ServiceKind/String : Complete Main
Default : Да
Forced : Нет

Меню
00:00:00.000 : en:Chapter 01
00:11:37.947 : en:Chapter 02
00:23:16.269 : en:Chapter 03
00:33:07.110 : en:Chapter 04
00:43:47.499 : en:Chapter 05
00:54:29.140 : en:Chapter 06
01:05:13.659 : en:Chapter 07

pb.wtf



Скачать Поколение убийц через торрент https://a.radikal.ru/a29/1811/b6/e4b05ae7cf38.png Скачать фильм Поколение убийц через торрент бесплантно в хорошем качестве Описание: Вторжение американцев в Ирак в 2003 году глазами рядовых пехотинцев армии США. В центре повествования Первый Разведывательный ... 7.5 10 4
Торрент: Зарегистрирован [2019-12-01 09:45] · скачан: 8 раз
Статус: √ проверено
Размер: 14.64 GB
Как cкачать? Как скачать Поколение убийц через торрент | qTorrent

% Раздел Тема Автор DL S | L
Зарубежные сериалы [ 16.42 GB ] Поколение убийц / Generation Kill / Сезон: 1 / Серии: 1-7 из 7 [2008 военный BDRip-AVC] 2x[MVO] + [VO] killermax2013 Скачать
2 | 0
Зарубежные сериалы [ 10.95 GB ] Поколение убийц / Generation Kill / Сезон: 1 / Серии: 1-7 из 7 [2008 военный BDRip] 2xMVO [5 канал / Звезда] [Гланц & Со. ] VO [1001 cinema] -Lexx- Скачать
1 | 0
Зарубежные сериалы [ 31.98 GB ] Поколение убийц / Generation Kill / Сезон: 1 / Серии: 1-7 из 7 [2008 военный BDRip 720p] 2xMVO [5 канал / Звезда] [Гланц & Со. ] -Lexx- Скачать
1 | 0


Последний раз редактировалось: ADVOKAT69 (2019-12-22 09:04), всего редактировалось 2 раз(а)

28-11-2019 20:33  

Отключить всю рекламу на сайте

03-11-2018 15:27 Поколение убийц Скачать торрент  

Топик был перенесен из форума Оформление раздач (Наши, Зарубежные Сериалы) в форум Зарубежные сериалы


-Lexx-pb.wtf



    Дорогой пользователь! Огромная просьба, поблагодарите релизера, оцените раздачу и оставьте свои комментарий, если Вы скачали Поколение убийц через торрент бесплатно! Внесите свою лепту в развитие PiratBit!
    Комментировать посты могут только пользователи прошедшие не сложную регистрацию
    Показать сообщения:    

    Поколение убийц через торрент
    Скачать бесплатно Поколение убийц
    Поколение убийц скачать торрент
    Поколение убийц смотреть онлайн
    Cкачать фильм Поколение убийц бесплатно
    Поколение убийц скачать торрент в хорошем качестве
    Поколение убийц смотреть онлайн бесплатно в хорошем качестве


    Вы не можете начинать темы
    Вы не можете отвечать на сообщения
    Вы не можете редактировать свои сообщения
    Вы не можете удалять свои сообщения
    Вы не можете голосовать в опросах
    Вы не можете прикреплять файлы к сообщениям
    Вы можете скачивать файлы