Ссылка на приватное зеркало всего за 1$. Внимание количество ограничено!!!

OK

1+1

iTunes

мы

OK

1

WEB-DLRip

Джокер

Пифагор

Ведьмак / The Witcher сериал

iTunes

ПШазам

ОК

Оно 2

iTunes

30
pack

Вам бонус

ВАЖНО

!!Акция!!

Alien_RageХит недели

RePack

Resident Evil 21

ИГРА 18+

pack

RePack

jed

RePack

fifa19

RePack

Assassins Creed: Odyssey

RePack

NEED FOR SPEED™ PAYBACK

4 сезон

9 сезон

Бесстыжие 9 сезон

Все сериалы

все сериалы на PB.wtf

RePack

FAR CRY 5
  

Мстители: Война бесконечности / Avengers: Infinity War (Энтони Руссо, Джо Руссо) [2018 г., фантастика, фэнтези, боевик, приключения, BDRip 1080p, HEVC (10bit), Дубляж (Лицензия)] pb.wtf

Мстители: Война бесконечности через торрент pb.wtf

Раздают: 7 [ 5 KB/s ]
Размер: 7.57 GB | Добавлен: 1 год 2 мес. назад | Торрент скачан:1065 раз
Скачать  

02-11-2018 12:36 Мстители: Война бесконечности Скачать торрент  

Мстители: Война бесконечности / Avengers: Infinity War
Год выпуска: 2018
Страна: США
Жанр: фантастика, фэнтези, боевик, приключения
Продолжительность: 02:29:21
Перевод: Дубляж (Лицензия)
Субтитры: Русские (форсированные, полные)

Режиссер: Энтони Руссо, Джо Руссо

rating

В ролях: Роберт Дауни мл., Крис Хемсворт, Марк Руффало, Крис Эванс, Скарлетт Йоханссон

Описание: Пока Мстители и их союзники продолжают защищать мир от различных опасностей, с которыми не смог бы справиться один супергерой, новая угроза возникает из космоса: Танос.
Доп. информация: -
H.265/HEVC (High Efficiency Video Coding) - это новый стандарт кодирования видео.
- Стандарт H.265/HEVC является логическим продолжением стандарта
H.264/AVC (Advanced Video Coding), и характеризуется более эффективными
алгоритмами сжатия, а также поддержкой высокого разрешения вплоть до 8K UHD
(8192x4320). Первая версия стандарта H.265 была опубликована в начале 2013 года.
- Рипы в фомате HEVC поддерживается не всеми аппаратными проигрывателями.
- Для корректного воспроизведения может потребоваться обновление ПО.
- Владельцам несовместимого железа просьба не беспокоить,
есть альтернативные релизы.
Качество: BDRip 1080p
Формат: MKV
Видео кодек: H.265
Аудио кодек: AC3
Видео: 1920x804, ~6165 Kbps
Аудио#1: AC3, 6 ch, 640 Kbps - Дублированный
Аудио#2: AC3, 6 ch, 448 Kbps - Английский
Релиз от: M@kSIMus


Общее
Уникальный идентификатор : 131446866344401322073256272373420593438 (0x62E3BEDF9109D7DDE7864793D93F111E)
Полное имя : F:\РАЗДАЧИ\19. Мстители - Война бесконечности (2018) BDRip 1080p [HEVC] 10 bit.mkv
Формат : Matroska
Версия формата : Version 4 / Version 2
Размер файла : 7,57 Гбайт
Продолжительность : 2 ч. 29 м.
Общий поток : 7255 Кбит/сек
Название фильма : Rip_by_M@kSIMus
Дата кодирования : UTC 2018-09-18 12:50:20
Программа кодирования : mkvmerge v19.0.0 ('Brave Captain') 64-bit
Библиотека кодирования : libebml v1.3.5 + libmatroska v1.4.8
Обложка : Yes
Attachments : cover.jpg

Видео
Идентификатор : 1
Формат : HEVC
Формат/Информация : High Efficiency Video Coding
Профиль формата : Main 10@L4.1@High
Идентификатор кодека : V_MPEGH/ISO/HEVC
Продолжительность : 2 ч. 29 м.
Битрейт : 6165 Кбит/сек
Ширина : 1920 пикселей
Высота : 804 пикселя
Соотношение сторон : 2,40:1
Режим частоты кадров : Постоянный
Частота кадров : 23,976 (24000/1001) кадра/сек
Цветовое пространство : YUV
Субдискретизация насыщенности : 4:2:0
Битовая глубина : 10 бит
Бит/(Пиксели*Кадры) : 0.167
Размер потока : 6,43 Гбайт (85%)
Библиотека кодирования : x265 2.8+25-0a629ea6036b:[Windows][GCC 8.1.0][64 bit] 10bit
Настройки программы : cpuid=1111039 / frame-threads=4 / numa-pools=16 / wpp / no-pmode / no-pme / no-psnr / no-ssim / log-level=2 / input-csp=1 / input-res=1920x804 / interlace=0 / total-frames=214855 / level-idc=41 / high-tier=1 / uhd-bd=0 / ref=5 / no-allow-non-conformance / no-repeat-headers / annexb / no-aud / no-hrd / info / hash=0 / no-temporal-layers / open-gop / min-keyint=23 / keyint=240 / gop-lookahead=0 / bframes=8 / b-adapt=2 / b-pyramid / bframe-bias=0 / rc-lookahead=60 / lookahead-slices=0 / scenecut=40 / radl=0 / no-intra-refresh / ctu=64 / min-cu-size=8 / rect / amp / max-tu-size=32 / tu-inter-depth=3 / tu-intra-depth=3 / limit-tu=1 / rdoq-level=1 / dynamic-rd=0.00 / no-ssim-rd / signhide / no-tskip / nr-intra=0 / nr-inter=0 / no-constrained-intra / no-strong-intra-smoothing / max-merge=5 / limit-refs=1 / limit-modes / me=3 / subme=7 / merange=57 / temporal-mvp / weightp / weightb / no-analyze-src-pics / deblock=-3:-3 / no-sao / no-sao-non-deblock / rd=6 / no-early-skip / rskip / no-fast-intra / no-tskip-fast / no-cu-lossless / b-intra / no-splitrd-skip / rdpenalty=0 / psy-rd=1.20 / psy-rdoq=1.00 / no-rd-refine / no-lossless / cbqpoffs=0 / crqpoffs=0 / rc=crf / crf=18.5 / qcomp=0.80 / qpstep=4 / stats-write=0 / stats-read=0 / vbv-maxrate=50000 / vbv-bufsize=50000 / vbv-init=0.9 / crf-max=0.0 / crf-min=0.0 / ipratio=1.40 / pbratio=1.30 / aq-mode=1 / aq-strength=1.00 / cutree / zone-count=1 / zones: / start-frame=197781 / end-frame=214855 / qp=35 / no-strict-cbr / qg-size=32 / no-rc-grain / qpmax=69 / qpmin=0 / no-const-vbv / sar=1 / overscan=0 / videoformat=5 / range=0 / colorprim=1 / transfer=1 / colormatrix=1 / chromaloc=0 / display-window=0 / max-cll=0,0 / min-luma=0 / max-luma=1023 / log2-max-poc-lsb=8 / vui-timing-info / vui-hrd-info / slices=1 / no-opt-qp-pps / no-opt-ref-list-length-pps / no-multi-pass-opt-rps / scenecut-bias=0.05 / no-opt-cu-delta-qp / no-aq-motion / no-hdr / no-hdr-opt / no-dhdr10-opt / no-idr-recovery-sei / analysis-reuse-level=5 / scale-factor=0 / refine-intra=0 / refine-inter=0 / refine-mv=0 / no-limit-sao / ctu-info=0 / no-lowpass-dct / refine-mv-type=0 / copy-pic=1 / max-ausize-factor=1.0 / no-dynamic-refine / no-single-sei
Язык : English
Default : Да
Forced : Нет
Цветовой диапазон : Limited
Основные цвета : BT.709
Характеристики трансфера : BT.709
Коэффициенты матрицы : BT.709

Аудио #1
Идентификатор : 2
Формат : AC-3
Формат/Информация : Audio Coding 3
Идентификатор кодека : A_AC3
Продолжительность : 2 ч. 29 м.
Вид битрейта : Постоянный
Битрейт : 640 Кбит/сек
Каналы : 6 каналов
Расположение каналов : Front: L C R, Side: L R, LFE
Частота : 48,0 КГц
Частота кадров : 31,250 кадров/сек (1536 SPF)
Битовая глубина : 16 бит
Метод сжатия : С потерями
Размер потока : 684 Мбайт (9%)
Заголовок : Дубляж
Язык : Russian
ServiceKind/String : Complete Main
Default : Да
Forced : Нет

Аудио #2
Идентификатор : 3
Формат : AC-3
Формат/Информация : Audio Coding 3
Идентификатор кодека : A_AC3
Продолжительность : 2 ч. 29 м.
Вид битрейта : Постоянный
Битрейт : 448 Кбит/сек
Каналы : 6 каналов
Расположение каналов : Front: L C R, Side: L R, LFE
Частота : 48,0 КГц
Частота кадров : 31,250 кадров/сек (1536 SPF)
Битовая глубина : 16 бит
Метод сжатия : С потерями
Размер потока : 479 Мбайт (6%)
Заголовок : Оригинал
Язык : English
ServiceKind/String : Complete Main
Default : Нет
Forced : Нет

Текст #1
Идентификатор : 4
Формат : UTF-8
Идентификатор кодека : S_TEXT/UTF8
Идентификатор кодека/Информация : UTF-8 Plain Text
Продолжительность : 2 ч. 12 м.
Битрейт : 0 бит/сек
ElementCount : 14
Размер потока : 373 байт (0%)
Заголовок : Forced
Язык : Russian
Default : Да
Forced : Нет

Текст #2
Идентификатор : 5
Формат : UTF-8
Идентификатор кодека : S_TEXT/UTF8
Идентификатор кодека/Информация : UTF-8 Plain Text
Продолжительность : 2 ч. 28 м.
Битрейт : 64 бит/сек
ElementCount : 1596
Размер потока : 70,4 Кбайт (0%)
Заголовок : Full
Язык : Russian
Default : Нет
Forced : Нет

Меню
00:00:00.000 : en:00:00:00.000
00:11:28.730 : en:00:11:28.730
00:18:13.884 : en:00:18:13.884
00:27:23.809 : en:00:27:23.809
00:35:48.813 : en:00:35:48.813
00:42:23.541 : en:00:42:23.541
00:54:12.875 : en:00:54:12.875
00:59:36.740 : en:00:59:36.740
01:05:07.153 : en:01:05:07.153
01:10:53.666 : en:01:10:53.666
01:17:06.956 : en:01:17:06.956
01:24:14.758 : en:01:24:14.758
01:31:08.004 : en:01:31:08.004
01:42:00.406 : en:01:42:00.406
01:45:57.810 : en:01:45:57.810
01:53:04.069 : en:01:53:04.069
01:58:52.917 : en:01:58:52.917
02:03:58.181 : en:02:03:58.181
02:11:13.282 : en:02:11:13.282
02:17:31.285 : en:02:17:31.285

pb.wtf



Скачать Мстители: Война бесконечности через торрент https://d.radikal.ru/d19/1811/9a/c5614b6a7c49.jpg Скачать фильм Мстители: Война бесконечности через торрент бесплантно в хорошем качестве Описание: Пока Мстители и их союзники продолжают защищать мир от различных опасностей, с которыми не смог бы справиться один супергерой, ... 10 10 20
Info! Золотая раздача, скачанное не засчитывается.
Торрент: Зарегистрирован [2018-11-02 12:36] · скачан: 1 065 раз
Статус: √ проверено
Размер: 7.57 GB
Как cкачать? Как скачать Мстители: Война бесконечности через торрент | qTorrent

% Раздел Тема Автор DL S | L
Ultra HD (UHD: 2K, 4K, 8K) — видео сверхвысокой чёткости [ 59.35 GB ] Мстители: Война бесконечности / Avengers: Infinity War [2018 UHD BDRemux 2160p] DUB [] + AVO sheker187 Скачать
1 | 0
3D Фильмы [ 12.46 GB ] Мстители: Война бесконечности 3Д / Avengers: Infinity War 3D [2018 BDRip 1080p] [Half OverUnder / Вертикальная анаморфная стереопара] DUB [] bober100 Скачать
2 | 0
3D Фильмы [ 8.68 GB ] Мстители: Война бесконечности в 3D / Avengers: Infinity War in 3D [2018 BDRip 1080p ] Анаглиф slaventi-69 Скачать
1 | 0
Ultra HD (UHD: 2K, 4K, 8K) — видео сверхвысокой чёткости [ 54.04 GB ] Мстители: Война бесконечности / Avengers: Infinity War [2018 UHD BDRemux 2160p] - [] sheker187 Скачать
3 | 0
Фильмы 2018 [DVDrip, WEB-DLRip, HDrip] (DUB, MVO) [ 2.77 GB ] Мстители: Война бесконечности / Avengers: Infinity War [2018 BDRip-AVC] DUB [] bober100 Скачать
2 | 0
Фильмы [HD 720p, 1080p] (Хороший звук DUB, MVO) [ 13.72 GB ] Мстители: Война бесконечности / Avengers: Infinity War [2018 BDRip 1080p] DUB [] bober100 Скачать
3 | 0
Фильмы (WEB-DL 720p, 1080p) [ 6.34 GB ] Мстители: Война бесконечности / Avengers: Infinity War [2018 WEBRip 1080p] [Open Matte] killermax2013 Скачать
4 | 0

28-11-2019 20:33  

Отключить всю рекламу на сайте

06-05-2019 18:03 Мстители: Война бесконечности Скачать торрент  

ломаный фильм. не запустился ни на компе, ни на твpb.wtf



10-05-2019 07:45 Мстители: Война бесконечности Скачать торрент  

через VLC посмотрелpb.wtf



    Дорогой пользователь! Огромная просьба, поблагодарите релизера, оцените раздачу и оставьте свои комментарий, если Вы скачали Мстители: Война бесконечности через торрент бесплатно! Внесите свою лепту в развитие PiratBit!
    Комментировать посты могут только пользователи прошедшие не сложную регистрацию
    Показать сообщения:    

    Мстители: Война бесконечности через торрент
    Скачать бесплатно Мстители: Война бесконечности
    Мстители: Война бесконечности скачать торрент
    Мстители: Война бесконечности смотреть онлайн
    Cкачать фильм Мстители: Война бесконечности бесплатно
    Мстители: Война бесконечности скачать торрент в хорошем качестве
    Мстители: Война бесконечности смотреть онлайн бесплатно в хорошем качестве


    Вы не можете начинать темы
    Вы не можете отвечать на сообщения
    Вы не можете редактировать свои сообщения
    Вы не можете удалять свои сообщения
    Вы не можете голосовать в опросах
    Вы не можете прикреплять файлы к сообщениям
    Вы можете скачивать файлы