Ссылка на приватное зеркало нашего сайта всего за 1$. Внимание количество ограничено!!!

2 сезон

iTunes

1 сезон

1

2 сезон

2 сезон

iTunes

1 сезон

RePack

30

Новинка

ВАЖНО

ИГРА 18+

pack

RePack

MK11
pack

Забери бонус

RePack

jed

!!Акция!!

Alien_Rage

RePack

fifa19

RePack

Assassins Creed: Odyssey

RePack

NEED FOR SPEED™ PAYBACK

4 сезон

9 сезон

Бесстыжие 9 сезон

Все сериалы

все сериалы на PB.wtf

RePack

FAR CRY 5
  

Доллар / One Dollar / Сезон: 1 / Серии: 1-10 из 10 (Крэйг Зобел) [2018, Триллер, WEB-DLRip] DVO [SunshineStudio] pb.wtf

Доллар через торрент pb.wtf

Размер: 6.44 GB | Добавлен: 2 года 1 мес. назад | Торрент скачан:5 раз
Скачать  

02-11-2018 18:57 Доллар Скачать торрент  

Доллар / One Dollar
Год выпуска: 2018
Страна: США
Жанр: Триллер
Продолжительность: ~ 00:53:00
Перевод: Любительский (двухголосый) |
Субтитры: отсутствуют

Режиссер: Крэйг Зобел

rating

В ролях:

Джон Кэрролл Линч, Натаниэль Мартелло-Уайт, Кристофер Денэм, Лесли Одом мл., Джошуа Битон, Филип Эттинджер, Грейси Лоуренс, Джефф Перри, Стерджил Симпсон

Описание:

Маленький американский городок приходит в себя после экономического кризиса 2007-2009 гг. Меняя владельцев, купюра в один доллар постепенно объединяет группу незнакомцев, причастных к шокирующим убийствам.

Качество: WEB-DLRip
Формат: AVI

Видео: ~ 1499 Кбит/с, 720x304, 25.000 fps
Аудио: Русский / AC3 / 2.0 / 192kbs
скриншот   скриншот   скриншот   скриншот  скриншот  

Общее
Полное имя : E:\One.Dollar.S01.400p.SunshineStudio\One.Dollar.S01E01.400p.SunshineStudio.avi
Формат : AVI
Формат/Информация : Audio Video Interleave
Размер файла : 635 Мбайт
Продолжительность : 52 м. 13 с.
Общий поток : 1701 Кбит/сек
Программа кодирования : VirtualDubMod 1.5.10.3 | www.virtualdub-fr.org || (build 2550/release)
Библиотека кодирования : VirtualDubMod build 2550/release

Видео
Идентификатор : 0
Формат : MPEG-4 Visual
Профиль формата : Advanced Simple@L5
Настройки формата : BVOP1
Параметр BVOP формата : 1
Параметр QPel формата : Нет
Параметр GMC формата : Без точки перехода
Параметр матрицы формата : Default (H.263)
Идентификатор кодека : XVID
Идентификатор кодека/Подсказка : XviD
Продолжительность : 52 м. 13 с.
Битрейт : 1500 Кбит/сек
Ширина : 720 пикселей
Высота : 304 пикселя
Соотношение сторон : 2,35:1
Частота кадров : 23,976 (24000/1001) кадра/сек
Цветовое пространство : YUV
Субдискретизация насыщенности : 4:2:0
Битовая глубина : 8 бит
Тип развёртки : Прогрессивная
Метод сжатия : С потерями
Бит/(Пиксели*Кадры) : 0.286
Размер потока : 560 Мбайт (88%)
Библиотека кодирования : XviD 1.2.1 (UTC 2008-12-04)

Аудио
Идентификатор : 1
Формат : AC-3
Формат/Информация : Audio Coding 3
Идентификатор кодека : 2000
Продолжительность : 52 м. 13 с.
Вид битрейта : Постоянный
Битрейт : 192 Кбит/сек
Каналы : 2 канала
Расположение каналов : Front: L R
Частота : 48,0 КГц
Частота кадров : 31,250 кадров/сек (1536 SPF)
Битовая глубина : 16 бит
Метод сжатия : С потерями
Размер потока : 71,7 Мбайт (11%)
Выравнивание : Разделение по промежуткам
Продолжительность промежутка : 42 мс. (1,00 видеокадр)
Время предзагрузки промежутка : 500 мс.
ServiceKind/String : Complete Main

pb.wtf



Скачать Доллар через торрент http://i6.imageban.ru/out/2018/09/01/ab69d5c20b18b8eb6a1587eebfa63b31.jpg Скачать фильм Доллар через торрент бесплантно в хорошем качестве Описание: Маленький американский городок приходит в себя после экономического кризиса 2007-2009 гг. Меняя владельцев, купюра в один доллар ... 10 10 2
Торрент: Зарегистрирован [2018-11-02 18:57] · скачан: 5 раз
Статус: √ проверено
Размер: 6.44 GB
Как cкачать? Как скачать Доллар через торрент | qTorrent

% Раздел Тема Автор DL S | L
Зарубежные сериалы [ 17.12 GB ] Доллар / One Dollar / Сезон: 1 / Серии: 1-10 из 10 [2018 WEBRip 1080p] [MVO] killermax2013 Скачать
1 | 0
Зарубежные сериалы [ 6.36 GB ] Доллар / One Dollar / Сезон: 1 / Серии: 1-10 из 10 [2018 WEB-DLRip] [MVO] killermax2013 Скачать
1 | 0
Зарубежные сериалы [ 6.2 GB ] Доллар / One Dollar / Сезон: 1 / Серии: 1-10 из 10 [2018 WEBRip] [DVO] killermax2013 Скачать
1 | 0
Зарубежные сериалы [ 6.96 GB ] Доллар / One Dollar / Сезон: 1 / Серии: 1-10 из 10 [2018 WEB-DLRip] DVO [SunshineStudio] bober100 Скачать
1 | 0
Зарубежные сериалы [ 6.97 GB ] Доллар / One Dollar / Сезон: 1 / Серии: 1-6 из 10 [2018 WEB-DL 720p] [DVO] killermax2013 Скачать
1 | 0
Зарубежные сериалы [ 20.33 GB ] Доллар / One Dollar / Сезон: 1 / Серии: 1-10 из 10 [2018 WEB-DL 1080p] [MVO] killermax2013 Скачать
1 | 0
Зарубежные сериалы [ 12.26 GB ] Доллар / One Dollar / Сезон: 1 / Серии: 1-9 из 10 [2018 WEBRip 720p] MVO [ColdFilm] bober100 Скачать
1 | 0

28-11-2019 20:33  

Отключить всю рекламу на сайте

    Дорогой пользователь! Огромная просьба, поблагодарите релизера, оцените раздачу и оставьте свои комментарий, если Вы скачали Доллар через торрент бесплатно! Внесите свою лепту в развитие PiratBit!
    Комментировать посты могут только пользователи прошедшие не сложную регистрацию
    Показать сообщения:    

    Доллар через торрент
    Скачать бесплатно Доллар
    Доллар скачать торрент
    Доллар смотреть онлайн
    Cкачать фильм Доллар бесплатно
    Доллар скачать торрент в хорошем качестве
    Доллар смотреть онлайн бесплатно в хорошем качестве


    Вы не можете начинать темы
    Вы не можете отвечать на сообщения
    Вы не можете редактировать свои сообщения
    Вы не можете удалять свои сообщения
    Вы не можете голосовать в опросах
    Вы не можете прикреплять файлы к сообщениям
    Вы можете скачивать файлы