Ссылка на приватное зеркало нашего сайта всего за 1$. Внимание количество ограничено!!!

2 сезон

iTunes

1 сезон

1

iTunes

iTunes

iTunes

1 сезон

RePack

30

ИГРА 18+

pack

ВАЖНО

!!Акция!!

Alien_RageХит недели

RePack

MK11
pack

Забери бонус

RePack

jed

!!Акция!!

Alien_Rage

RePack

fifa19

RePack

Assassins Creed: Odyssey

RePack

NEED FOR SPEED™ PAYBACK

4 сезон

9 сезон

Бесстыжие 9 сезон

Все сериалы

все сериалы на PB.wtf

RePack

FAR CRY 5
  

Ворона / Сезон: 1 / Серии: 1-12 из 12 (Ольга Ангелова, Евгений Сосницкий) [2018, детектив, криминал, WEBRip] pb.wtf

Ворона через торрент pb.wtf

Размер: 6.53 GB | Добавлен: 1 год 11 мес. назад | Торрент скачан:180 раз
Скачать  

03-11-2018 09:02 Ворона Скачать торрент  

Ворона
Год выпуска: 2018
Страна: Россия
Жанр: детектив, криминал
Продолжительность: ~ 00:48:00
Субтитры: отсутствуют

Режиссер: Ольга Ангелова, Евгений Сосницкий



В ролях:

Анна Воронцова, или, как прозвали ее коллеги в следственном комитете, Ворона, в течение трёх недель отказывается возбуждать дело о пропаже известного богемного фотографа. По роковому стечению обстоятельств, этот человек погибает. Теперь, терзаемая муками совести героиня, ставит своей задачей во чтобы то ни стало разобраться в этом деле.

Описание:

Анна Воронцова, или, как прозвали ее коллеги в следственном комитете, Ворона, в течение трёх недель отказывается возбуждать дело о пропаже известного богемного фотографа. По роковому стечению обстоятельств, этот человек погибает. Теперь, терзаемая муками совести героиня, ставит своей задачей во чтобы то ни стало разобраться в этом деле.

Качество: WEBRip
Формат: AVI

Видео: XviD build 73, 720x352 (2.045), 25.000 fps, ~ 1400 Kbps (~ 0.223 bit/pixel)
Аудио: 48.0 kHz, AC3, 2/0 ch, 192 kbps
скриншот  скриншот  скриншот  скриншот  скриншот  

General
Complete name : D:RazdachiVorona.2018.XviD.WEB-Rip.GeneralFilmVorona.e01.avi
Format : AVI
Format/Info : Audio Video Interleave
File size : 557 MiB
Duration : 48 min 12 s
Overall bit rate : 1 616 kb/s
Writing application : VirtualDubMod 1.5.10.3 | www.virtualdub-fr.org || (build 2550/release)
Writing library : VirtualDubMod build 2550/release

Video
ID : 0
Format : MPEG-4 Visual
Format profile : Advanced Simple@L5
Format settings, BVOP : 1
Format settings, QPel : No
Format settings, GMC : No warppoints
Format settings, Matrix : Custom
Codec ID : XVID
Codec ID/Hint : XviD
Duration : 48 min 12 s
Bit rate : 1 414 kb/s
Width : 720 pixels
Height : 352 pixels
Display aspect ratio : 2.045
Frame rate : 25.000 FPS
Color space : YUV
Chroma subsampling : 4:2:0
Bit depth : 8 bits
Scan type : Progressive
Compression mode : Lossy
Bits/(Pixel*Frame) : 0.223
Stream size : 487 MiB (88%)
Writing library : XviD 73

Audio
ID : 1
Format : AC-3
Format/Info : Audio Coding 3
Format settings, Endianness : Big
Codec ID : 2000
Duration : 48 min 12 s
Bit rate mode : Constant
Bit rate : 192 kb/s
Channel(s) : 2 channels
Channel positions : Front: L R
Sampling rate : 48.0 kHz
Frame rate : 31.250 FPS (1536 SPF)
Bit depth : 16 bits
Compression mode : Lossy
Stream size : 66.2 MiB (12%)
Alignment : Split accross interleaves
Interleave, duration : 40 ms (1.00 video frame)
Interleave, preload duratio : 500 ms
Service kind : Complete Main

pb.wtf



Скачать Ворона через торрент https://c.radikal.ru/c31/1810/90/e8c69220b612.jpg Скачать фильм Ворона через торрент бесплантно в хорошем качестве Описание: Анна Воронцова, или, как прозвали ее коллеги в следственном комитете, Ворона, в течение трёх недель отказывается возбуждать дело ... 10 10 7
Торрент: Зарегистрирован [2018-11-03 09:02] · скачан: 180 раз
Статус: √ проверено
Размер: 6.53 GB
Как cкачать? Как скачать Ворона через торрент | qTorrent

% Раздел Тема Автор DL S | L
Наши сериалы [ 15.07 GB ] Ворона / Сезон: 1 / Серии: 1-12 из 12 [2018 WEBRip 720p] bober100 Скачать
1 | 0
Наши сериалы [ 8.95 GB ] Ворона / Сезон: 1 / Серии: 1-12 из 12 [2018 WEB-DLRip-AVC] bober100 Скачать
1 | 0
Наши сериалы [ 25.06 GB ] Ворона / Сезон: 1 / Серии: 1-12 из 12 [2018 WEB-DL 1080p] bober100 Скачать
1 | 0
Наши сериалы [ 7.64 GB ] Ворона / Сезон: 1 / Серии: 1-12 из 12 [2018 SATRip] bober100 Скачать
1 | 0

28-11-2019 20:33  

Отключить всю рекламу на сайте

    Дорогой пользователь! Огромная просьба, поблагодарите релизера, оцените раздачу и оставьте свои комментарий, если Вы скачали Ворона через торрент бесплатно! Внесите свою лепту в развитие PiratBit!
    Комментировать посты могут только пользователи прошедшие не сложную регистрацию
    Показать сообщения:    

    Ворона через торрент
    Скачать бесплатно Ворона
    Ворона скачать торрент
    Ворона смотреть онлайн
    Cкачать фильм Ворона бесплатно
    Ворона скачать торрент в хорошем качестве
    Ворона смотреть онлайн бесплатно в хорошем качестве


    Вы не можете начинать темы
    Вы не можете отвечать на сообщения
    Вы не можете редактировать свои сообщения
    Вы не можете удалять свои сообщения
    Вы не можете голосовать в опросах
    Вы не можете прикреплять файлы к сообщениям
    Вы можете скачивать файлы