2 сезон

iTunes

1 сезон

1

iTunes

iTunes

iTunes

1 сезон

RePack

30

ИГРА 18+

pack

ВАЖНО

!!Акция!!

Alien_RageХит недели

RePack

MK11
pack

Забери бонус

RePack

jed

!!Акция!!

Alien_Rage

RePack

fifa19

RePack

Assassins Creed: Odyssey

RePack

NEED FOR SPEED™ PAYBACK

4 сезон

9 сезон

Бесстыжие 9 сезон

Все сериалы

все сериалы на PB.wtf

RePack

FAR CRY 5
  

Алмазы Сталина (Борис Казаков) (Серии 4 из 4) [2016 г., экранизация, история, драма, SATRip, Оригинальный] pb.wtf

Алмазы Сталина через торрент pb.wtf

Размер: 2.17 GB | Добавлен: 1 год 11 мес. назад | Торрент скачан:150 раз
Скачать  

03-11-2018 11:32 Алмазы Сталина Скачать торрент  

Алмазы Сталина Информация о фильме

Год выпуска: 2016
Жанр: История, драма
Выпущено: Россия
Продолжительность: 4 x ~ 00:45:00
Язык: Русский

Режиссер: Борис Казаков

В ролях: Юрий Стоянов, Алексей Шевченков, Андрей Фролов, Дмитрий Ермак, Анна Банщикова, Константин Желдин, Елена Шилова, Юрий Нифонтов, Олег Васильков, Николай Шатохин, Антон Колесников, Дмитрий Гусев, Александр Вонтов, Сергей Цепов, Владимир Гусев, Сергей Насибов, Геннадий Яковлев

О фильме: Сюжетных линий в фильме несколько. С одной стороны — это Ялтинская конференция 1945 года, на которой присутствуют Иосиф Сталин, Уинстон Черчилль и Франклин Рузвельт. В исторической параллели — XVII век, Иван Мазепа и Кирилл Разумовский на Крестовоздвиженском прииске (впоследствии Молотовской области) в заключении ищут алмазы. Именно об этих камнях заходит речь на конференции. Третья линия — любовная история двух друзей-военных и молодой девушки.



Качество: SATRip
Формат AVI
Видео: XviD, ~ 1500 Кбит/с, 720x384
Аудио: MP3, 2 ch, 128 Кбит/с
General
Complete name : E:\Almazy.Stalina.SATRip\01.serija.avi
Format : AVI
Format/Info : Audio Video Interleave
File size : 595 MiB
Duration : 47 min 14 s
Overall bit rate : 1 761 kb/s

Video
ID : 0
Format : MPEG-4 Visual
Format profile : Advanced Simple@L5
Format settings : BVOP2
Format settings, BVOP : 2
Format settings, QPel : No
Format settings, GMC : No warppoints
Format settings, Matrix : Default (H.263)
Codec ID : XVID
Codec ID/Hint : XviD
Duration : 47 min 14 s
Bit rate : 1 619 kb/s
Width : 720 pixels
Height : 384 pixels
Display aspect ratio : 1.85:1
Frame rate : 25.000 FPS
Color space : YUV
Chroma subsampling : 4:2:0
Bit depth : 8 bits
Scan type : Progressive
Compression mode : Lossy
Bits/(Pixel*Frame) : 0.234
Stream size : 547 MiB (92%)
Writing library : XviD 1.2.1 (UTC 2008-12-04)

Audio
ID : 1
Format : MPEG Audio
Format version : Version 1
Format profile : Layer 3
Format settings : Joint stereo / MS Stereo
Mode : Joint stereo
Mode extension : MS Stereo
Codec ID : 55
Codec ID/Hint : MP3
Duration : 47 min 14 s
Bit rate mode : Constant
Bit rate : 128 kb/s
Channel(s) : 2 channels
Sampling rate : 48.0 kHz
Compression mode : Lossy
Stream size : 43.2 MiB (7%)
Alignment : Aligned on interleaves
Interleave, duration : 24 ms (0.60 video frame)
Writing library : LAME3.99r
Encoding settings : -m j -V 4 -q 9 -lowpass 17 -b 128
скриншот  скриншот  скриншот  
pb.wtf



Скачать Алмазы Сталина через торрент http://i2.imageban.ru/out/2016/03/19/341b70f70051a11961a131671dcfd9b0.jpg Скачать фильм Алмазы Сталина через торрент бесплантно в хорошем качестве О фильме: Сюжетных линий в фильме несколько. С одной стороны — это Ялтинская конференция 1945 года, на которой присутствуют Иосиф Сталин, ... 8.6 10 5
Торрент: Зарегистрирован [2018-11-03 11:32] · скачан: 150 раз
Статус: √ проверено
Размер: 2.17 GB
Как cкачать? Как скачать Алмазы Сталина через торрент | qTorrent

% Раздел Тема Автор DL S | L
Наши сериалы [ 2.78 GB ] Алмазы Сталина [2016 экранизация история SATRip Оригинальный] 2009Shaman Скачать
1 | 0

28-11-2019 20:33  

Отключить всю рекламу на сайте

    Дорогой пользователь! Огромная просьба, поблагодарите релизера, оцените раздачу и оставьте свои комментарий, если Вы скачали Алмазы Сталина через торрент бесплатно! Внесите свою лепту в развитие PiratBit!
    Комментировать посты могут только пользователи прошедшие не сложную регистрацию
    Показать сообщения:    

    Алмазы Сталина через торрент
    Скачать бесплатно Алмазы Сталина
    Алмазы Сталина скачать торрент
    Алмазы Сталина смотреть онлайн
    Cкачать фильм Алмазы Сталина бесплатно
    Алмазы Сталина скачать торрент в хорошем качестве
    Алмазы Сталина смотреть онлайн бесплатно в хорошем качестве


    Вы не можете начинать темы
    Вы не можете отвечать на сообщения
    Вы не можете редактировать свои сообщения
    Вы не можете удалять свои сообщения
    Вы не можете голосовать в опросах
    Вы не можете прикреплять файлы к сообщениям
    Вы можете скачивать файлы