Ссылка на приватное зеркало нашего сайта всего за 1$. Внимание количество ограничено!!!

2 сезон

iTunes

1 сезон

1

iTunes

iTunes

iTunes

1 сезон

RePack

30

ИГРА 18+

pack

ВАЖНО

!!Акция!!

Alien_RageХит недели

RePack

MK11
pack

Забери бонус

RePack

jed

!!Акция!!

Alien_Rage

RePack

fifa19

RePack

Assassins Creed: Odyssey

RePack

NEED FOR SPEED™ PAYBACK

4 сезон

9 сезон

Бесстыжие 9 сезон

Все сериалы

все сериалы на PB.wtf

RePack

FAR CRY 5
  

Красота требует жертв / Серий: 1 - 4 из 4 (Юрий Попович) [2018 г., мелодрама, детектив, SATRip] pb.wtf

Красота требует жертв через торрент pb.wtf

Размер: 2.67 GB | Добавлен: 1 год 11 мес. назад | Торрент скачан:131 раз
Скачать  

03-11-2018 18:41 Красота требует жертв Скачать торрент  

Красота требует жертв
Год выпуска: 2018
Страна: Украина
Жанр: Мелодрама, детектив
Серий: 1-4 из 4

Продолжительность: ~ 00:43:00 серия

Режиссер: Юрий Попович



В ролях: Светлана Тимофеева-Летуновская, Юлия Такшина, Павел Делонг, Николай Лавров

Описание: Лере сорок, и она начинает задумываться о том, что пора вступать борьбу с возрастом. Муж Игорь уверяет, что любит её такой, как она есть, даже если в уголках глаз появляются морщинки. Но подруга Ира предупреждает: не слушай, что говорят мужики, потом будешь локти кусать, когда он уйдет к молоденькой. И Лера решается: она ложится в дорогую клинику на пластическую операцию. Ночью, выйдя из палаты, она видит идущую по коридору известную актрису. И только через пару минут вспоминает: в дневном выпуске новостей сообщили о трагической гибели этой самой актрисы…
Качество: SATRip
Формат: AVI
Видео кодек: XviD
Аудио кодек: MP3
Видео: XviD, ~ 1650 Кбит/с, 720x400
Аудио: Русский, MP3, 2 ch, 192 Кбит/с
Видео
Идентификатор : 0
Формат : MPEG-4 Visual
Профиль формата : Advanced Simple@L5
Параметр BVOP формата : 1
Параметр QPel формата : Нет
Параметр GMC формата : Без точки перехода
Параметр матрицы формата : Default (MPEG)
Идентификатор кодека : XVID
Идентификатор кодека/Подсказка : XviD
Продолжительность : 53 м. 18 с.
Битрейт : 1650 Кбит/сек
Ширина : 720 пикселей
Высота : 400 пикселей
Соотношение сторон : 16:9
Частота кадров : 25,000 кадров/сек
Цветовое пространство : YUV
Субдискретизация насыщенности : 4:2:0
Битовая глубина : 8 бит
Тип развёртки : Прогрессивная
Метод сжатия : С потерями
Бит/(Пиксели*Кадры) : 0.229
Размер потока : 629 Мбайт (89%)
Библиотека кодирования : XviD 1.2.1 (UTC 2008-12-04)

Аудио
Идентификатор : 1
Формат : MPEG Audio
Версия формата : Version 1
Профиль формата : Layer 3
Режим : Joint stereo
Расширение режима : MS Stereo
Идентификатор кодека : 55
Идентификатор кодека/Подсказка : MP3
Продолжительность : 53 м. 18 с.
Вид битрейта : Постоянный
Битрейт : 192 Кбит/сек
Каналы : 2 канала
Частота : 48,0 КГц
Метод сжатия : С потерями
Размер потока : 73,2 Мбайт (10%)
Выравнивание : Соединение по промежуткам
Продолжительность промежутка : 40 мс. (1,00 видеокадр)
Время предзагрузки промежутка : 504 мс.
Библиотека кодирования : LAME3.99r
Настройки программы : -m j -V 4 -q 2 -lowpass 18.6 -b 192

скриншот   скриншот   скриншот   скриншот   скриншот  

pb.wtf



Скачать Красота требует жертв через торрент http://pic1.kartinco.top/images/11/3ly5n.jpg Скачать фильм Красота требует жертв через торрент бесплантно в хорошем качестве Описание: Лере сорок, и она начинает задумываться о том, что пора вступать борьбу с возрастом. Муж Игорь уверяет, что любит её такой, как ... 9.7 10 3
Торрент: Зарегистрирован [2018-11-03 18:41] · скачан: 131 раз
Статус: √ проверено
Размер: 2.67 GB
Как cкачать? Как скачать Красота требует жертв через торрент | qTorrent

28-11-2019 20:33  

Отключить всю рекламу на сайте

    Дорогой пользователь! Огромная просьба, поблагодарите релизера, оцените раздачу и оставьте свои комментарий, если Вы скачали Красота требует жертв через торрент бесплатно! Внесите свою лепту в развитие PiratBit!
    Комментировать посты могут только пользователи прошедшие не сложную регистрацию
    Показать сообщения:    

    Красота требует жертв через торрент
    Скачать бесплатно Красота требует жертв
    Красота требует жертв скачать торрент
    Красота требует жертв смотреть онлайн
    Cкачать фильм Красота требует жертв бесплатно
    Красота требует жертв скачать торрент в хорошем качестве
    Красота требует жертв смотреть онлайн бесплатно в хорошем качестве


    Вы не можете начинать темы
    Вы не можете отвечать на сообщения
    Вы не можете редактировать свои сообщения
    Вы не можете удалять свои сообщения
    Вы не можете голосовать в опросах
    Вы не можете прикреплять файлы к сообщениям
    Вы можете скачивать файлы